Поиск

(Contemporary Jazz, Vocal Jazz, Balkan Jazz, ECM) [CD] Elina Duni - Коллекция - 2007-2015 (4 альбома), FLAC (tracks+.cue), lossless

(Contemporary Jazz, Vocal Jazz, Balkan Jazz, ECM) [CD] Elina Duni - Коллекция - 2007-2015 (4 альбома), FLAC (tracks+.cue), lossless
Elina Duni
Коллекция - 2007-2015 (4 альбома)Жанр: Contemporary Jazz, Vocal Jazz, Balkan Jazz
Аудиокодек: FLAC (*.flac)
Тип рипа: tracks+.cue
Битрейт аудио: lossless
Продолжительность: 4:01:34
Элина Дюни родилась в Албании, но в возрасте 10 лет она с родителями переехала в Швейцарию. За ее плечами – учеба в авторитетной Швейцарской школе джаза (Swiss Jazz School) в Берне. Сегодня она играет джазовую музыку, комбинируя народные песни Балкан с современными ритмами. Это ее способ объединить два мира, две культуры, две цивилизации.
 
Elina Duni
Born in Tirana, Albania, in 1981 during the Communist regime, in an artist family,
Elina Duni makes her first steps on stage as a singer at the age of five and begins studying the violin. From 1986 to 1991, she participates in several children’s festivals and sings for the National Albanian Radio and Television.
In 1992 after the fall of the regime, she arrives in Switzerland and settles in Geneva together with her mother. She studies the classical piano at the Conservatoire de Musique de Geneve and continues her studies at the College de Saussure, where she discovers jazz.
In 2000 after obtaining the «Artistic Diploma», Elina enrolls at the “school of life”. Between 2000 and 2004, she plays in the movie «Yllka» (Albania-Switzerland) and co-composes the music. She gives several jazz concerts in Albania together with the pianist Gent Rushi (CD Live in Tirana) and acts in the play «Three Farces from Chekhov» directed by Spiro Duni, Tirana.
Together with Jose Luis "Sarten" Asaresi she creates the band «Extrangers in the Noise», (CD Harpatic, (Empiriko) – electronic sounds blend with the absurdity of life – then she departs for New York to be confronted with the big city’s solitude.
After returning to Switzerland she performs in the play «La preuve du Contraire», directed by Freddy Porras, Geneva.
Between 2004 and 2008 she studies singing and composition at the Hochschule der Kunste Bern, in the jazz department. During this time she develops the Elina Duni Quartet with Colin Vallon on piano, Lukas Traxel on double bass and Norbert Pfammatter on drums – which represents a return to her musical sources, a combination of Balkan folk songs and jazz.
In 2007 she is the prizewinner of the «Friedl Wald» stipend.
In 2008 the CD Baresha, first album of Elina Duni Quartet, is released on Meta Records. This first musical departure with her quartet receives marvelous acclaim from the German and Swiss press and is followed by European tours as well as receiving the honorable prize “Coup de Coeur du Canton de Berne 2008”.
In the same year, Elina is the prizewinner of the “HKB-Best-Trachsel-Stipendium-zum Berufseinstieg” stipend.
She sings and co-composes the music for the theater play “Engel”, directed by Christian Probst (Bern) together with Colin Vallon and Rico Baumann.
During 2009 she is selected by the committee of the festival Swiss Diagonales Jazz to perform with the project “SDJ mentoring project with Bugge Wesseltoft” for a Swiss tour.
The Elina Duni Quartet receives from Pro Helvetia “Priority Jazz Encouragement 2010-2012”.
In 2010 the second album of the Quartet Lume, Lume (World, World) is released on Meta Records and receives great acclaim from the Swiss, German, Austrian and French Press. The band tours in Europe and plays in numerous festivals.
In 2011, french pianist and composer Andre Manoukian invites Elina Duni as a guest in the album "Melanchology" (Universal).
In september 2012 the Quartet releases it’s debut Album on ECM Records «Matane Malit» (Beyond the Mountain), an homage to Albania and receives the Jazz Pott Prize in Essen, Germany.
The band tours in Europe and the USA and the receives great acclaim from the international press.
In 2014 Elina Duni releases in Kosovo and Albania her first solo album as a singer-songwriter «Muza e Zeze» (The black muse).
 
2007 - Elina Duni - Baresha (Meta)
Elina Duni - Baresha
Страна-производитель диска: Германия
Год издания диска: 2007
Издатель (лейбл): Meta Records
Номер по каталогу: 039
Продолжительность: 68:27
Источник (релизер): ivolution (what)
Наличие сканов в содержимом раздачи: нет
Треклист:
01. Lule (trad. Albania/I. Myzyri) - 4:46
02. Yiati Den M'agapas (trad. Greece) - 3:53
03. Kiparissin (trad. Albania) - 4:37
04. Ces Petits Riens (S. Gainsbourg) - 3:46
05. Solitary Moon (Mandel/Bergmann) - 4:57
06. Osso Varun (trad. Greece) - 5:32
07. Loch Ness (B. Oester) - 4:44
08. La Javanaise (S. Gainsbourg) - 7:16
09. Baresha (trad. Kosovo, Mulliqi/Kukaj) - 4:45
10. Zemer (trad. Albania) - 7:05
11. Edna Na Maika (trad. Bulgaria) - 5:42
12. Spice Island (T. Gorman) - 6:12
13. Avec Le Temps (L. Ferre) - 5:12
Состав:
Elina Duni - vocals
Colin Vallon - piano
Banz Oester - bass
Norbert Pfammatter - drums
 
Лог создания рипа
Exact Audio Copy V0.99 prebeta 5 from 4. May 2009
EAC extraction logfile from 23. May 2011, 19:58
Elina Duni / Baresha
Used drive : Optiarc DVD RW AD-5170A Adapter: 0 ID: 0
Read mode : Secure
Utilize accurate stream : Yes
Defeat audio cache : Yes
Make use of C2 pointers : No
Read offset correction : 48
Overread into Lead-In and Lead-Out : No
Fill up missing offset samples with silence : Yes
Delete leading and trailing silent blocks : No
Null samples used in CRC calculations : Yes
Used interface : Native Win32 interface for Win NT & 2000
Gap handling : Appended to previous track
Used output format : User Defined Encoder
Selected bitrate : 320 kBit/s
Quality : High
Add ID3 tag : No
Command line compressor : C:\Program Files (x86)\Exact Audio Copy\Flac\flac.exe
Additional command line options : -V -8 -T "artist=%a" -T "title=%t" -T "album=%g" -T "date=%y" -T "tracknumber=%n" -T "genre=%m" %s
TOC of the extracted CD
Track | Start | Length | Start sector | End sector
---------------------------------------------------------
1 | 0:00.00 | 4:46.28 | 0 | 21477
2 | 4:46.28 | 3:53.35 | 21478 | 38987
3 | 8:39.63 | 4:36.43 | 38988 | 59730
4 | 13:16.31 | 3:45.45 | 59731 | 76650
5 | 17:02.01 | 4:57.31 | 76651 | 98956
6 | 21:59.32 | 5:31.69 | 98957 | 123850
7 | 27:31.26 | 4:43.51 | 123851 | 145126
8 | 32:15.02 | 7:15.39 | 145127 | 177790
9 | 39:30.41 | 4:45.04 | 177791 | 199169
10 | 44:15.45 | 7:04.46 | 199170 | 231015
11 | 51:20.16 | 5:42.30 | 231016 | 256695
12 | 57:02.46 | 6:12.14 | 256696 | 284609
13 | 63:14.60 | 5:11.45 | 284610 | 307979
Track 1
Filename D:\musicrips\Elina Duni - Baresha (2007)\01 - Lule (trad. Albania, I. Myzyri).wav
Pre-gap length 0:00:02.00
Peak level 92.7 %
Track quality 100.0 %
Test CRC DF8A2C36
Copy CRC DF8A2C36
Accurately ripped (confidence 6) [B2414AAB]
Copy OK
Track 2
Filename D:\musicrips\Elina Duni - Baresha (2007)\02 - Yiati Den M'agapas (trad. Greece).wav
Pre-gap length 0:00:02.00
Peak level 94.4 %
Track quality 100.0 %
Test CRC A3495F57
Copy CRC A3495F57
Accurately ripped (confidence 6) [46868CA4]
Copy OK
Track 3
Filename D:\musicrips\Elina Duni - Baresha (2007)\03 - Kiparissin (trad. Albania).wav
Pre-gap length 0:00:02.00
Peak level 99.9 %
Track quality 100.0 %
Test CRC C325771D
Copy CRC C325771D
Accurately ripped (confidence 6) [D944FE55]
Copy OK
Track 4
Filename D:\musicrips\Elina Duni - Baresha (2007)\04 - Ces Petits Riens (S. Gainsbourg).wav
Pre-gap length 0:00:04.00
Peak level 100.0 %
Track quality 99.9 %
Test CRC 11DC5866
Copy CRC 11DC5866
Accurately ripped (confidence 6) [A0702298]
Copy OK
Track 5
Filename D:\musicrips\Elina Duni - Baresha (2007)\05 - Solitary Moon (Mandel,Bergmann).wav
Pre-gap length 0:00:02.00
Peak level 97.9 %
Track quality 100.0 %
Test CRC DF851359
Copy CRC DF851359
Accurately ripped (confidence 6) [E1A44BBA]
Copy OK
Track 6
Filename D:\musicrips\Elina Duni - Baresha (2007)\06 - Osso Varun (trad. Greece).wav
Pre-gap length 0:00:03.00
Peak level 100.0 %
Track quality 100.0 %
Test CRC 35A22139
Copy CRC 35A22139
Accurately ripped (confidence 6) [1EB914F7]
Copy OK
Track 7
Filename D:\musicrips\Elina Duni - Baresha (2007)\07 - Loch Ness (B. Oester).wav
Pre-gap length 0:00:03.00
Peak level 84.7 %
Track quality 100.0 %
Test CRC A193F9A2
Copy CRC A193F9A2
Accurately ripped (confidence 6) [C1FAF53E]
Copy OK
Track 8
Filename D:\musicrips\Elina Duni - Baresha (2007)\08 - La Javanaise (S. Gainsbourg).wav
Pre-gap length 0:00:04.00
Peak level 73.8 %
Track quality 100.0 %
Test CRC C73E89E7
Copy CRC C73E89E7
Accurately ripped (confidence 7) [18319774]
Copy OK
Track 9
Filename D:\musicrips\Elina Duni - Baresha (2007)\09 - Baresha (trad. Kosovo, Mulliqi,Kukaj).wav
Pre-gap length 0:00:02.00
Peak level 99.9 %
Track quality 100.0 %
Test CRC 153185AB
Copy CRC 153185AB
Accurately ripped (confidence 7) [952951DA]
Copy OK
Track 10
Filename D:\musicrips\Elina Duni - Baresha (2007)\10 - Zemлr (trad. Albania).wav
Pre-gap length 0:00:02.00
Peak level 100.0 %
Track quality 99.9 %
Test CRC 4D576F7F
Copy CRC 4D576F7F
Accurately ripped (confidence 6) [9ECF80C8]
Copy OK
Track 11
Filename D:\musicrips\Elina Duni - Baresha (2007)\11 - Edna Na Maika (trad. Bulgaria).wav
Pre-gap length 0:00:03.00
Peak level 100.0 %
Track quality 100.0 %
Test CRC B6BB4179
Copy CRC B6BB4179
Accurately ripped (confidence 6) [2CEB5F4D]
Copy OK
Track 12
Filename D:\musicrips\Elina Duni - Baresha (2007)\12 - Spice Island (T. Gorman).wav
Pre-gap length 0:00:03.00
Peak level 98.9 %
Track quality 99.9 %
Test CRC 9430C573
Copy CRC 9430C573
Accurately ripped (confidence 6) [05B1D3B1]
Copy OK
Track 13
Filename D:\musicrips\Elina Duni - Baresha (2007)\13 - Avec Le Temps (L. Ferrй).wav
Pre-gap length 0:00:02.00
Peak level 94.4 %
Track quality 99.8 %
Copy CRC 410C27F4
Accurately ripped (confidence 6) [E335141B]
Copy OK
All tracks accurately ripped
No errors occurred
End of status report
 
Содержание индексной карты (.CUE)
REM GENRE Jazz
REM DATE 2007
REM DISCID BA100A0D
REM COMMENT "ExactAudioCopy v0.99pb5"
PERFORMER "Elina Duni"
TITLE "Baresha"
FILE "01 - Lule.wav" WAVE
TRACK 01 AUDIO
TITLE "Lule"
PERFORMER "Elina Duni"
INDEX 01 00:00:00
TRACK 02 AUDIO
TITLE "Yiati Den M'agapas"
PERFORMER "Elina Duni"
INDEX 00 04:44:28
FILE "02 - Yiati Den M'agapas.wav" WAVE
INDEX 01 00:00:00
TRACK 03 AUDIO
TITLE "Kiparissin"
PERFORMER "Elina Duni"
INDEX 00 03:51:35
FILE "03 - Kiparissin.wav" WAVE
INDEX 01 00:00:00
TRACK 04 AUDIO
TITLE "Ces Petits Riens"
PERFORMER "Elina Duni"
INDEX 00 04:32:43
FILE "04 - Ces Petits Riens.wav" WAVE
INDEX 01 00:00:00
TRACK 05 AUDIO
TITLE "Solitary Moon"
PERFORMER "Elina Duni"
INDEX 00 03:43:45
FILE "05 - Solitary Moon.wav" WAVE
INDEX 01 00:00:00
TRACK 06 AUDIO
TITLE "Osso Varun"
PERFORMER "Elina Duni"
INDEX 00 04:54:31
FILE "06 - Osso Varun.wav" WAVE
INDEX 01 00:00:00
TRACK 07 AUDIO
TITLE "Loch Ness"
PERFORMER "Elina Duni"
INDEX 00 05:28:69
FILE "07 - Loch Ness.wav" WAVE
INDEX 01 00:00:00
TRACK 08 AUDIO
TITLE "La Javanaise"
PERFORMER "Elina Duni"
INDEX 00 04:39:51
FILE "08 - La Javanaise.wav" WAVE
INDEX 01 00:00:00
TRACK 09 AUDIO
TITLE "Baresha"
PERFORMER "Elina Duni"
INDEX 00 07:13:39
FILE "09 - Baresha.wav" WAVE
INDEX 01 00:00:00
TRACK 10 AUDIO
TITLE "Zemer"
PERFORMER "Elina Duni"
INDEX 00 04:43:04
FILE "10 - Zemer.wav" WAVE
INDEX 01 00:00:00
TRACK 11 AUDIO
TITLE "Edna Na Maika"
PERFORMER "Elina Duni"
INDEX 00 07:01:46
FILE "11 - Edna Na Maika.wav" WAVE
INDEX 01 00:00:00
TRACK 12 AUDIO
TITLE "Spice Island"
PERFORMER "Elina Duni"
INDEX 00 05:39:30
FILE "12 - Spice Island.wav" WAVE
INDEX 01 00:00:00
TRACK 13 AUDIO
TITLE "Avec Le Temps"
PERFORMER "Elina Duni"
INDEX 00 06:10:14
FILE "13 - Avec Le Temps.wav" WAVE
INDEX 01 00:00:00
 
Отчет CUETools
[CUETools log; Date: 14.08.2013 11:45:10; Version: 2.1.4]
[CTDB TOCID: DIMNE_W.CtnWwg2O.0JdF0rMLJs-] found.
Track | CTDB Status
1 | (1/1) Accurately ripped
2 | (1/1) Accurately ripped
3 | (1/1) Accurately ripped
4 | (1/1) Accurately ripped
5 | (1/1) Accurately ripped
6 | (1/1) Accurately ripped
7 | (1/1) Accurately ripped
8 | (1/1) Accurately ripped
9 | (1/1) Accurately ripped
10 | (1/1) Accurately ripped
11 | (1/1) Accurately ripped
12 | (1/1) Accurately ripped
13 | (1/1) Accurately ripped
[AccurateRip ID: 001eda9e-013ac54c-ba100a0d] found.
Track [ CRC | V2 ] Status
01 [b2414aab|3fc35eb3] (11+06/17) Accurately ripped
02 [46868ca4|2cd62698] (11+06/17) Accurately ripped
03 [d944fe55|ba94b5cb] (11+06/17) Accurately ripped
04 [a0702298|91df5297] (11+06/17) Accurately ripped
05 [e1a44bba|5e90d666] (11+06/17) Accurately ripped
06 [1eb914f7|40ee1c76] (11+06/17) Accurately ripped
07 [c1faf53e|ca5ed08c] (11+06/17) Accurately ripped
08 [18319774|3e4b4824] (12+06/18) Accurately ripped
09 [952951da|11a47da0] (12+06/18) Accurately ripped
10 [9ecf80c8|5f229b46] (11+06/17) Accurately ripped
11 [2ceb5f4d|7f72a3bf] (11+06/17) Accurately ripped
12 [05b1d3b1|5923bbed] (10+06/16) Accurately ripped
13 [e335141b|45e224b9] (11+06/17) Accurately ripped
Track Peak [ CRC32 ] [W/O NULL] [ LOG ]
-- 100,0 [1DEFF33E] [F0F03D52]
01 92,7 [DF8A2C36] [9C5E622C] CRC32
02 94,4 [A3495F57] [A12A82C5] CRC32
03 99,9 [C325771D] [EC8947B3] CRC32
04 100,0 [11DC5866] [C3A47D5E] CRC32
05 97,9 [DF851359] [88E755C0] CRC32
06 100,0 [35A22139] [848DFD96] CRC32
07 84,7 [A193F9A2] [14CDA47F] CRC32
08 73,8 [C73E89E7] [A64B0F56] CRC32
09 99,9 [153185AB] [4C630FF1] CRC32
10 100,0 [4D576F7F] [9C9B2342] CRC32
11 100,0 [B6BB4179] [E2A5FB97] CRC32
12 98,9 [9430C573] [132F4202] CRC32
13 94,4 [410C27F4] [C42FED58] CRC32
 
Об альбоме (сборнике)
The debut album from the Elina Duni Quartet, who make the integration of modal jazz and folk music sound organic, which was originally released in 2008. The repertoire on 'Baresha' includes traditional songs from Albania, Greece, Kosovo and Bulgaria, alongside original compositions from Serge Gainsbourg and Leo Ferre' amongst others. The Quartet released the album 'Matane" Malit' on ECM Records in October 2012.
"Elina's voice is a true instrument, with the sort of true musicality that is rare with singers...Elina and her group mesmerize with a unique amalgam of Eastern European tradition transposed to a modern Jazz key, a group sensibility that goes far beyond singer and typical piano trio backup." - Cadence Magazine
 
2010 - Elina Duni Quartet - Lume, Lume (Meta)
Elina Duni Quartet - Lume Lume
Жанр: Contemporary Jazz, Vocal Jazz, Balkan Jazz
Страна-производитель диска: Германия
Год издания: 2010
Издатель (лейбл): Meta Records
Номер по каталогу: 052
Продолжительность: 64:05
Источник (релизер): dtromp (what)
Наличие сканов в содержимом раздачи: да
Треклист:
01. Kenga e Qamiles (trad. Albania) - 2:55
02. Ki zandana me kamerav (trad. Romani) - 5:15
03. Lume, Lume (trad. Roumania) - 5:57
04. Do marr ciften (trad. Albania) - 5:39
05. Kur me del n'sokak (trad. Kosovo) - 4:20
06. Ha bu ander sevdaluk (Aykatin G. Atas) - 4:48
07. Dhen mboro Manoula (trad. Greece) - 5:26
08. Nenocke (trad. Albania) - 4:53
09. Hapi syte e zes (trad. Albania) - 4:43
10. S'paske pas nje pike meshire (trad. Albania/I. Myzyri) - 5:16
11. Kaval Sviri (trad. Bulgaria) - 6:59
12. Riverman (Nick Drake) - 7:54
Состав:
Elina Duni - vocals
Colin Vallon - piano
Banz Oester - bass
Norbert Pfammatter - drums
 
Лог создания рипа
Exact Audio Copy V1.0 beta 1 from 15. November 2010
EAC extraction logfile from 2. March 2011, 17:25
Elina Duni Quartet / Lume, Lume
Used drive : PLEXTOR DVDR PX-860A Adapter: 0 ID: 0
Read mode : Secure
Utilize accurate stream : Yes
Defeat audio cache : Yes
Make use of C2 pointers : No
Read offset correction : 96
Overread into Lead-In and Lead-Out : No
Fill up missing offset samples with silence : Yes
Delete leading and trailing silent blocks : No
Null samples used in CRC calculations : Yes
Used interface : Native Win32 interface for Win NT & 2000
Gap handling : Appended to previous track
Used output format : User Defined Encoder
Selected bitrate : 1024 kBit/s
Quality : High
Add ID3 tag : No
Command line compressor : C:\Program Files\Exact Audio Copy\flac.exe
Additional command line options : -8 -V -T "ARTIST=%a" -T "TITLE=%t" -T "ALBUM=%g" -T "DATE=%y" -T "TRACKNUMBER=%n" -T "TOTALTRACKS=%x" -T "GENRE=%m" -T "ALBUM ARTIST=%v" -T "ALBUMARTIST=%v" -T "COMMENT=EAC V1.0 beta 1, Secure Mode, Test & Copy, AccurateRip
TOC of the extracted CD
Track | Start | Length | Start sector | End sector
---------------------------------------------------------
1 | 0:00.00 | 2:54.43 | 0 | 13092
2 | 2:54.43 | 5:14.68 | 13093 | 36710
3 | 8:09.36 | 5:56.57 | 36711 | 63467
4 | 14:06.18 | 5:38.61 | 63468 | 88878
5 | 19:45.04 | 4:20.07 | 88879 | 108385
6 | 24:05.11 | 4:48.00 | 108386 | 129985
7 | 28:53.11 | 5:26.01 | 129986 | 154436
8 | 34:19.12 | 4:52.61 | 154437 | 176397
9 | 39:11.73 | 4:43.33 | 176398 | 197655
10 | 43:55.31 | 5:15.56 | 197656 | 221336
11 | 49:11.12 | 6:58.60 | 221337 | 252746
12 | 56:09.72 | 7:53.72 | 252747 | 288293
Track 1
Filename S:\DL\Elina Duni Quartet - Lume, Lume (2010) [FLAC]\01 - Kenga e Qamiles trad. Albania.wav
Pre-gap length 0:00:02.00
Peak level 38.1 %
Extraction speed 4.5 X
Track quality 100.0 %
Test CRC 5578BE6C
Copy CRC 5578BE6C
Accurately ripped (confidence 2) [315AADF8]
Copy OK
Track 2
Filename S:\DL\Elina Duni Quartet - Lume, Lume (2010) [FLAC]\02 - Ki zandana me kamerav trad. Romani.wav
Peak level 100.0 %
Extraction speed 5.4 X
Track quality 100.0 %
Test CRC F94EBBEB
Copy CRC F94EBBEB
Accurately ripped (confidence 2) [C63EA38D]
Copy OK
Track 3
Filename S:\DL\Elina Duni Quartet - Lume, Lume (2010) [FLAC]\03 - Lume, Lume trad. Roumania.wav
Peak level 99.9 %
Extraction speed 6.1 X
Track quality 100.0 %
Test CRC 51E45F38
Copy CRC 51E45F38
Accurately ripped (confidence 2) [4446F9F1]
Copy OK
Track 4
Filename S:\DL\Elina Duni Quartet - Lume, Lume (2010) [FLAC]\04 - Do marr ciften trad. Albania.wav
Peak level 100.0 %
Extraction speed 6.6 X
Track quality 100.0 %
Test CRC 24F68EEB
Copy CRC 24F68EEB
Accurately ripped (confidence 2) [9CA29709]
Copy OK
Track 5
Filename S:\DL\Elina Duni Quartet - Lume, Lume (2010) [FLAC]\05 - Kur me del n'sokak trad. Kosovo.wav
Peak level 100.0 %
Extraction speed 6.8 X
Track quality 100.0 %
Test CRC A2185E70
Copy CRC A2185E70
Accurately ripped (confidence 2) [ABC7D91D]
Copy OK
Track 6
Filename S:\DL\Elina Duni Quartet - Lume, Lume (2010) [FLAC]\06 - Ha bu ander sevdaluk Aykatin G. Atas.wav
Peak level 99.9 %
Extraction speed 7.2 X
Track quality 100.0 %
Test CRC 557EF7E5
Copy CRC 557EF7E5
Accurately ripped (confidence 2) [11D315D0]
Copy OK
Track 7
Filename S:\DL\Elina Duni Quartet - Lume, Lume (2010) [FLAC]\07 - Dhen mboro Manoula trad. Greece.wav
Peak level 100.0 %
Extraction speed 7.7 X
Track quality 100.0 %
Test CRC F267806F
Copy CRC F267806F
Accurately ripped (confidence 2) [F6121701]
Copy OK
Track 8
Filename S:\DL\Elina Duni Quartet - Lume, Lume (2010) [FLAC]\08 - Nenocke trad. Albania.wav
Peak level 44.3 %
Extraction speed 8.0 X
Track quality 100.0 %
Test CRC C000B77E
Copy CRC C000B77E
Accurately ripped (confidence 2) [10445BCA]
Copy OK
Track 9
Filename S:\DL\Elina Duni Quartet - Lume, Lume (2010) [FLAC]\09 - Hapi syte e zez trad. Albania.wav
Peak level 100.0 %
Extraction speed 8.2 X
Track quality 100.0 %
Test CRC B76A5B3D
Copy CRC B76A5B3D
Accurately ripped (confidence 2) [F7DE796A]
Copy OK
Track 10
Filename S:\DL\Elina Duni Quartet - Lume, Lume (2010) [FLAC]\10 - S'paske pas nje pike meshire trad. Albania.wav
Peak level 99.9 %
Extraction speed 8.6 X
Track quality 100.0 %
Test CRC 34318CD4
Copy CRC 34318CD4
Accurately ripped (confidence 2) [12F494E4]
Copy OK
Track 11
Filename S:\DL\Elina Duni Quartet - Lume, Lume (2010) [FLAC]\11 - Kaval Sviri trad. Bulgaria.wav
Peak level 100.0 %
Extraction speed 9.2 X
Track quality 100.0 %
Test CRC 86CA35A2
Copy CRC 86CA35A2
Accurately ripped (confidence 2) [BA3F1F30]
Copy OK
Track 12
Filename S:\DL\Elina Duni Quartet - Lume, Lume (2010) [FLAC]\12 - Riverman Nick Drake.wav
Peak level 94.3 %
Extraction speed 9.8 X
Track quality 100.0 %
Test CRC 194066D4
Copy CRC 194066D4
Accurately ripped (confidence 2) [6A20B1D2]
Copy OK
All tracks accurately ripped
No errors occurred
End of status report
==== Log checksum 64174E701265D2F75577EECB66F88488470C3E8C53C25192FE74CE8779CE47C3 ====
 
Содержание индексной карты (.CUE)
REM GENRE Jazz
REM DATE 2010
REM DISCID AC0F030C
REM COMMENT "ExactAudioCopy v1.0b1"
PERFORMER "Elina Duni Quartet"
TITLE "Lume, Lume"
FILE "01 - Kenga e Qamiles.wav" WAVE
TRACK 01 AUDIO
TITLE "Kenga e Qamiles"
PERFORMER "Elina Duni Quartet"
INDEX 01 00:00:00
FILE "02 - Ki zandana me kamerav.wav" WAVE
TRACK 02 AUDIO
TITLE "Ki zandana me kamerav"
PERFORMER "Elina Duni Quartet"
INDEX 01 00:00:00
FILE "03 - Lume, Lume.wav" WAVE
TRACK 03 AUDIO
TITLE "Lume, Lume"
PERFORMER "Elina Duni Quartet"
INDEX 01 00:00:00
FILE "04 - Do marr ciften.wav" WAVE
TRACK 04 AUDIO
TITLE "Do marr ciften"
PERFORMER "Elina Duni Quartet"
INDEX 01 00:00:00
FILE "05 - Kur me del n'sokak.wav" WAVE
TRACK 05 AUDIO
TITLE "Kur me del n'sokak"
PERFORMER "Elina Duni Quartet"
INDEX 01 00:00:00
FILE "06 - Ha bu ander sevdaluk.wav" WAVE
TRACK 06 AUDIO
TITLE "Ha bu ander sevdaluk"
PERFORMER "Elina Duni Quartet"
INDEX 01 00:00:00
FILE "07 - Dhen mboro Manoula.wav" WAVE
TRACK 07 AUDIO
TITLE "Dhen mboro Manoula"
PERFORMER "Elina Duni Quartet"
INDEX 01 00:00:00
FILE "08 - Nenocke.wav" WAVE
TRACK 08 AUDIO
TITLE "Nenocke"
PERFORMER "Elina Duni Quartet"
INDEX 01 00:00:00
FILE "09 - Hapi syte e zes.wav" WAVE
TRACK 09 AUDIO
TITLE "Hapi syte e zes"
PERFORMER "Elina Duni Quartet"
INDEX 01 00:00:00
FILE "10 - S'paske pas nje pike meshire.wav" WAVE
TRACK 10 AUDIO
TITLE "S'paske pas nje pike meshire"
PERFORMER "Elina Duni Quartet"
INDEX 01 00:00:00
FILE "11 - Kaval Sviri.wav" WAVE
TRACK 11 AUDIO
TITLE "Kaval Sviri"
PERFORMER "Elina Duni Quartet"
INDEX 01 00:00:00
FILE "12 - Riverman.wav" WAVE
TRACK 12 AUDIO
TITLE "Riverman"
PERFORMER "Elina Duni Quartet"
INDEX 01 00:00:00
 
Отчет CUETools
[CUETools log; Date: 14.08.2013 11:18:12; Version: 2.1.4]
[CTDB TOCID: 4HDcZdgCykRhF0BUmqLZAYRsCi8-] found.
Track | CTDB Status
1 | (6/6) Accurately ripped
2 | (6/6) Accurately ripped
3 | (6/6) Accurately ripped
4 | (6/6) Accurately ripped
5 | (6/6) Accurately ripped
6 | (6/6) Accurately ripped
7 | (6/6) Accurately ripped
8 | (6/6) Accurately ripped
9 | (6/6) Accurately ripped
10 | (6/6) Accurately ripped
11 | (6/6) Accurately ripped
12 | (6/6) Accurately ripped
[AccurateRip ID: 001a6b40-00fa6550-ac0f030c] found.
Track [ CRC | V2 ] Status
01 [315aadf8|94676048] (05+11/16) Accurately ripped
02 [c63ea38d|ec4d809d] (05+11/16) Accurately ripped
03 [4446f9f1|28a168d7] (05+11/16) Accurately ripped
04 [9ca29709|b312b5d0] (05+11/16) Accurately ripped
05 [abc7d91d|0e728607] (05+11/16) Accurately ripped
06 [11d315d0|d4ada4a2] (05+11/16) Accurately ripped
07 [f6121701|4c457cec] (05+11/16) Accurately ripped
08 [10445bca|8876ca44] (05+11/16) Accurately ripped
09 [f7de796a|000e6898] (05+11/16) Accurately ripped
10 [12f494e4|b0a22e59] (05+11/16) Accurately ripped
11 [ba3f1f30|c9e4a09b] (05+11/16) Accurately ripped
12 [6a20b1d2|c48beca8] (05+11/16) Accurately ripped
Track Peak [ CRC32 ] [W/O NULL] [ LOG ]
-- 100,0 [4F167C12] [2BE3F1F7]
01 38,1 [5578BE6C] [614181D1] CRC32
02 100,0 [F94EBBEB] [EFCCBA9C] CRC32
03 99,9 [51E45F38] [A4B725BD] CRC32
04 100,0 [24F68EEB] [FBA04985] CRC32
05 100,0 [A2185E70] [3C0FE84F] CRC32
06 99,9 [557EF7E5] [62E804F2] CRC32
07 100,0 [F267806F] [12885C8E] CRC32
08 44,3 [C000B77E] [97199E35] CRC32
09 100,0 [B76A5B3D] [E64F56FA] CRC32
10 99,9 [34318CD4] [57AFEA90] CRC32
11 100,0 [86CA35A2] [1F462A81] CRC32
12 94,3 [194066D4] [B0671A80] CRC32
 
Об альбоме (сборнике)
The second album from the Elina Duni Quartet, who make the integration of modal jazz and folk music sound organic, which was originally released in 2010. The repertoire on 'Lume Lume' includes traditional songs from Romania, Albania, Greece, Kosovo and Bulgaria, alongside original compositions from Nick Drake and Aytekin G. Atas. The Quartet released the album 'Matane" Malit' on ECM Records in October 2012.
"Elina's voice is a true instrument, with the sort of true musicality that is rare with singers...Elina and her group mesmerize with a unique amalgam of Eastern European tradition transposed to a modern Jazz key, a group sensibility that goes far beyond singer and typical piano trio backup." - Cadence Magazine
 
2012 - Elina Duni Quartet - Matane Malit (ECM)
Elina Duni Quartet - Matane Malit
Страна-производитель диска: Германия
Год издания: 2012
Издатель (лейбл): ECM Records
Номер по каталогу: ECM 2277/3706457
Продолжительность: 53:51
Источник (релизер): jlgt
Наличие сканов в содержимом раздачи: да
Треклист:
01. Ka nje mot (M. Gurra) - 5:12
02. Kjani trima (trad. Albania) - 4:07
03. Kur te kujtosh (B. Myftiu/E. Duni) - 4:06
04. Vajze e valeve (N. Muco) - 5:29
05. Une ty moj (trad. Albania) - 3:55
06. Ere pranverore (L. Siliqi/T. Daija) - 3:35
07. Celo Mezani (trad. Albania) - 5:42
08. Ra kambana (trad. Albania) - 4:16
09. Cobankat (trad. Albania) - 5:15
10. Kristal (I. Kadare/E. Duni) - 4:53
11. U rrit vasha (trad. Kosovo) - 3:24
12. Mine Peza (trad. Albania) - 3:57
Состав:
Elina Duni - vocals
Colin Vallon - piano
Patrice Moret - bass
Norbert Pfammatter - drums
Recorded at Studios La Buissonne, Pernes-les-Fontaines in February 2012.
 
Лог создания рипа
Exact Audio Copy V1.0 beta 3 from 29. August 2011
EAC extraction logfile from 5. October 2012, 21:44
Elina Duni Quartet / Matane Malit (ECM 2277)
Used drive : PIONEER DVD-RW DVR-111D Adapter: 5 ID: 1
Read mode : Secure
Utilize accurate stream : Yes
Defeat audio cache : Yes
Make use of C2 pointers : No
Read offset correction : 48
Overread into Lead-In and Lead-Out : No
Fill up missing offset samples with silence : Yes
Delete leading and trailing silent blocks : No
Null samples used in CRC calculations : Yes
Used interface : Native Win32 interface for Win NT & 2000
Gap handling : Appended to previous track
Used output format : User Defined Encoder
Selected bitrate : 256 kBit/s
Quality : High
Add ID3 tag : No
Command line compressor : C:\Archivos de programa\Exact Audio Copy\FLAC\FLAC.EXE
Additional command line options : -8 -V -T "ARTIST=%artist%" -T "TITLE=%title%" -T "ALBUM=%albumtitle%" -T "DATE=%year%" -T "TRACKNUMBER=%tracknr%" -T "TOTALTRACKS=%numtracks%" -T "GENRE=%genre%" -T "ALBUMARTIST=%albumartist%" -T "ALBUM ARTIST=%albumartist%" -T "COMMENT=EAC Secure Mode, Test & Copy, AccurateRip, FLAC -8" %source%
TOC of the extracted CD
Track | Start | Length | Start sector | End sector
---------------------------------------------------------
1 | 0:00.00 | 5:11.41 | 0 | 23365
2 | 5:11.41 | 4:06.53 | 23366 | 41868
3 | 9:18.19 | 4:06.36 | 41869 | 60354
4 | 13:24.55 | 5:29.30 | 60355 | 85059
5 | 18:54.10 | 3:55.04 | 85060 | 102688
6 | 22:49.14 | 3:34.58 | 102689 | 118796
7 | 26:23.72 | 5:41.48 | 118797 | 144419
8 | 32:05.45 | 4:15.53 | 144420 | 163597
9 | 36:21.23 | 5:14.71 | 163598 | 187218
10 | 41:36.19 | 4:52.52 | 187219 | 209170
11 | 46:28.71 | 3:24.15 | 209171 | 224485
12 | 49:53.11 | 3:56.66 | 224486 | 242251
Track 1
Filename D:\flac rips\01 - Ka Nje Mot.wav
Pre-gap length 0:00:02.00
Peak level 96.9 %
Extraction speed 4.7 X
Track quality 100.0 %
Test CRC D9B80086
Copy CRC D9B80086
Track not present in AccurateRip database
Copy OK
Track 2
Filename D:\flac rips\02 - Kjani Trima.wav
Peak level 73.1 %
Extraction speed 5.1 X
Track quality 100.0 %
Test CRC E6A7DD57
Copy CRC E6A7DD57
Track not present in AccurateRip database
Copy OK
Track 3
Filename D:\flac rips\03 - Kur Te Kujtosh.wav
Peak level 97.2 %
Extraction speed 5.5 X
Track quality 100.0 %
Test CRC 8BAB09DD
Copy CRC 8BAB09DD
Track not present in AccurateRip database
Copy OK
Track 4
Filename D:\flac rips\04 - Vajze E Valeve.wav
Peak level 97.2 %
Extraction speed 5.6 X
Track quality 99.9 %
Test CRC F05883F3
Copy CRC F05883F3
Track not present in AccurateRip database
Copy OK
Track 5
Filename D:\flac rips\05 - Une Ty Moj.wav
Peak level 76.1 %
Extraction speed 5.5 X
Track quality 99.9 %
Test CRC C9A2905D
Copy CRC C9A2905D
Track not present in AccurateRip database
Copy OK
Track 6
Filename D:\flac rips\06 - Ere Pranverore.wav
Peak level 97.3 %
Extraction speed 5.6 X
Track quality 99.9 %
Test CRC 85CD697B
Copy CRC 85CD697B
Track not present in AccurateRip database
Copy OK
Track 7
Filename D:\flac rips\07 - Celo Mezani.wav
Peak level 94.4 %
Extraction speed 5.9 X
Track quality 99.9 %
Test CRC 0A9D928C
Copy CRC 0A9D928C
Track not present in AccurateRip database
Copy OK
Track 8
Filename D:\flac rips\08 - Ra Kambana.wav
Peak level 97.2 %
Extraction speed 5.8 X
Track quality 99.9 %
Test CRC 469FBCE6
Copy CRC 469FBCE6
Track not present in AccurateRip database
Copy OK
Track 9
Filename D:\flac rips\09 - Cobankat.wav
Peak level 97.3 %
Extraction speed 7.7 X
Track quality 100.0 %
Test CRC 239C4A9E
Copy CRC 239C4A9E
Track not present in AccurateRip database
Copy OK
Track 10
Filename D:\flac rips\10 - Kristal.wav
Peak level 97.1 %
Extraction speed 7.8 X
Track quality 100.0 %
Test CRC D6F2DABE
Copy CRC D6F2DABE
Track not present in AccurateRip database
Copy OK
Track 11
Filename D:\flac rips\11 - U Rrit Vasha.wav
Peak level 98.5 %
Extraction speed 6.7 X
Track quality 99.9 %
Test CRC 619E8E67
Copy CRC 619E8E67
Track not present in AccurateRip database
Copy OK
Track 12
Filename D:\flac rips\12 - Mine Peza.wav
Peak level 90.6 %
Extraction speed 8.1 X
Track quality 100.0 %
Test CRC B647EE28
Copy CRC B647EE28
Track not present in AccurateRip database
Copy OK
None of the tracks are present in the AccurateRip database
No errors occurred
End of status report
==== Log checksum 5C9F3A3940995FA1F19D8D1FC30771C64278BBA92107556BFAF0C8317E6B028D ====
 
Содержание индексной карты (.CUE)
REM GENRE Jazz
REM DATE 2012
REM DISCID AF0C9E0C
REM COMMENT "ExactAudioCopy v1.0b3"
PERFORMER "Elina Duni Quartet"
TITLE "Matane Malit"
FILE "01 - Ka nje mot.wav" WAVE
TRACK 01 AUDIO
TITLE "Ka nje mot"
PERFORMER "Elina Duni Quartet"
INDEX 01 00:00:00
FILE "02 - Kjani trima.wav" WAVE
TRACK 02 AUDIO
TITLE "Kjani trima"
PERFORMER "Elina Duni Quartet"
INDEX 01 00:00:00
FILE "03 - Kur te kujtosh.wav" WAVE
TRACK 03 AUDIO
TITLE "Kur te kujtosh"
PERFORMER "Elina Duni Quartet"
INDEX 01 00:00:00
FILE "04 - Vajze e valeve.wav" WAVE
TRACK 04 AUDIO
TITLE "Vajze e valeve"
PERFORMER "Elina Duni Quartet"
INDEX 01 00:00:00
FILE "05 - Une ty moj.wav" WAVE
TRACK 05 AUDIO
TITLE "Une ty moj"
PERFORMER "Elina Duni Quartet"
INDEX 01 00:00:00
FILE "06 - Ere pranverore.wav" WAVE
TRACK 06 AUDIO
TITLE "Ere pranverore"
PERFORMER "Elina Duni Quartet"
INDEX 01 00:00:00
FILE "07 - Celo Mezani.wav" WAVE
TRACK 07 AUDIO
TITLE "Celo Mezani"
PERFORMER "Elina Duni Quartet"
INDEX 01 00:00:00
FILE "08 - Ra kambana.wav" WAVE
TRACK 08 AUDIO
TITLE "Ra kambana"
PERFORMER "Elina Duni Quartet"
INDEX 01 00:00:00
FILE "09 - Cobankat.wav" WAVE
TRACK 09 AUDIO
TITLE "Cobankat"
PERFORMER "Elina Duni Quartet"
INDEX 01 00:00:00
FILE "10 - Kristal.wav" WAVE
TRACK 10 AUDIO
TITLE "Kristal"
PERFORMER "Elina Duni Quartet"
INDEX 01 00:00:00
FILE "11 - U rrit vasha.wav" WAVE
TRACK 11 AUDIO
TITLE "U rrit vasha"
PERFORMER "Elina Duni Quartet"
INDEX 01 00:00:00
FILE "12 - Mine Peza.wav" WAVE
TRACK 12 AUDIO
TITLE "Mine Peza"
PERFORMER "Elina Duni Quartet"
INDEX 01 00:00:00
 
Отчет CUETools
[CUETools log; Date: 14.08.2013 11:37:23; Version: 2.1.4]
[CTDB TOCID: 4.O4utw.6dpzwPBprqSq0zqIsZo-] found.
Track | CTDB Status
1 | (6/7) Differs in 176 samples @04:22:66
2 | (6/7) Accurately ripped
3 | (6/7) Accurately ripped
4 | (6/7) Accurately ripped
5 | (6/7) Accurately ripped
6 | (6/7) Accurately ripped
7 | (6/7) Differs in 357 samples @03:56:72,05:09:19
8 | (6/7) Differs in 179 samples @02:38:05
9 | (6/7) Differs in 175 samples @01:55:55
10 | (6/7) Accurately ripped
11 | (6/7) Accurately ripped
12 | (7/7) Accurately ripped
[AccurateRip ID: 001876d2-00e3d306-af0c9e0c] found.
Track [ CRC | V2 ] Status
01 [4beb7107|07c1dae1] (00+00/20) No match
02 [d7ee8224|bfeff4c6] (03+17/20) Accurately ripped
03 [665923f7|0bb2347e] (03+17/20) Accurately ripped
04 [7d38bf96|15411e91] (03+17/20) Accurately ripped
05 [c5100560|ff06cb4c] (03+17/20) Accurately ripped
06 [ea652825|75f6a118] (03+17/20) Accurately ripped
07 [ec570997|970a6ac0] (00+00/20) No match
08 [cc2109fc|abfbe7bc] (00+00/20) No match
09 [f7cf3c08|28046898] (00+00/20) No match
10 [6d02e193|662c5f22] (03+17/20) Accurately ripped
11 [23cce33a|a8da02c2] (03+17/20) Accurately ripped
12 [2cd0afdd|3b9434b4] (03+17/20) Accurately ripped
Track Peak [ CRC32 ] [W/O NULL] [ LOG ]
-- 98,5 [617AF990] [06CE26A8]
01 96,9 [D9B80086] [12F09D70] CRC32
02 73,1 [E6A7DD57] [D23A70D2] CRC32
03 97,2 [8BAB09DD] [60057FAA] CRC32
04 97,2 [F05883F3] [A4983CA6] CRC32
05 76,1 [C9A2905D] [727564D6] CRC32
06 97,3 [85CD697B] [20F17CDB] CRC32
07 94,4 [0A9D928C] [488B3C1C] CRC32
08 97,2 [469FBCE6] [ACF76224] CRC32
09 97,3 [239C4A9E] [E672B9F5] CRC32
10 97,1 [D6F2DABE] [2D895FAC] CRC32
11 98,5 [619E8E67] [B38436C5] CRC32
12 90,6 [B647EE28] [725C0AC1] CRC32
 
Review by Rick Anderson
Female singer plus piano trio equals jazz album, right? Wrong. Elina Duni's debut album is a tribute to her Albanian heritage, and while there are elements of jazz in the arrangements (and certainly in the instrumentation), there's little to nothing jazzy about her singing or about the songs. These are Balkan folk songs, some of them light in tone and content and others exploring and elucidating the deep cultural ruptures that have characterized the region's history for centuries: topics include exile, sheepherding, political resistance, romantic love, and labor. But unless you either speak Albanian or follow along with the translations in the liner notes, you'll have to divine these subtleties from the music itself -- and luckily, Duni is the kind of singer who can communicate an awful lot of subtlety with just a gentle change of dynamics or a shift in timbre. She sings with almost no vibrato and a minimum of ornamentation, her voice ringing out like a glass bell pitched in the alto range. Then there are the time signatures, which you may not notice unless you're trying to dance: "Kur Te" Kujtosh," for example, seems to be written in 11/8. Although tempos vary somewhat and instrumental textures do as well, it's hard to identify highlights on this remarkable album -- all of the tracks share a similar feeling of haunting regret, and all of them are deeply beautiful. This is one of those very rare albums that doesn't insist on your undivided attention, but rewards it richly anyway.
 
2015 - Elina Duni Quartet - Dallendyshe (ECM)
Elina Duni Quartet - Dallendyshe
Страна-производитель диска: Германия
Год издания: 2015
Издатель (лейбл): ECM Records
Номер по каталогу: ECM 2401
Продолжительность: 55:14
Источник (релизер): jlgt
Наличие сканов в содержимом раздачи: да
Треклист:
01. Fellenza (Gurra) - 6:04
02. Syte (Mucolli) - 5:09
03. Ylberin (trad. Albania) - 5:05
04. Une ne koder, ti ne koder (trad. Albania) - 6:13
05. Kur te pashe (trad. Kosovo) - 4:49
06. Delja rude (trad. Albania) - 5:20
07. Une do te vete (trad. Albania) - 4:59
08. Taksirat (trad. Albania) - 3:28
09. Nene moj (trad. Albania) - 4:14
10. Bukuroshe (trad. Albania) - 4:16
11. Ti ri ti ti klarinate (trad. Arvanitas) - 2:50
12. Dallendyshe (trad. Arberesh) - 2:47
Состав:
Elina Duni - vocals
Colin Vallon - piano
Patrice Moret - double bass
Norbert Pfammatter - drums
Recorded at La Buissonne, Pernes-Les-Fontaines in July 2014.
 
Лог создания рипа
Exact Audio Copy V1.0 beta 3 from 29. August 2011
EAC extraction logfile from 28. April 2015, 1:17
Elina Duni Quartet / Dallendyshe [ECM 2401]
Used drive : PLEXTOR DVDR PX-891SAW Adapter: 2 ID: 1
Read mode : Secure
Utilize accurate stream : Yes
Defeat audio cache : Yes
Make use of C2 pointers : No
Read offset correction : 48
Overread into Lead-In and Lead-Out : No
Fill up missing offset samples with silence : Yes
Delete leading and trailing silent blocks : No
Null samples used in CRC calculations : Yes
Used interface : Native Win32 interface for Win NT & 2000
Gap handling : Appended to previous track
Used output format : User Defined Encoder
Selected bitrate : 128 kBit/s
Quality : High
Add ID3 tag : No
Command line compressor : C:\Program Files (x86)\Exact Audio Copy\FLAC\FLAC.EXE
Additional command line options : -8 -V -T "ARTIST=%artist%" -T "TITLE=%title%" -T "ALBUM=%albumtitle%" -T "DATE=%year%" -T "TRACKNUMBER=%tracknr%" -T "TOTALTRACKS=%numtracks%" -T "GENRE=%genre%" -T "ALBUMARTIST=%albumartist%" -T "ALBUM ARTIST=%albumartist%" -T "COMMENT=EAC Secure Mode, Test & Copy, AccurateRip, FLAC -8" %source%
TOC of the extracted CD
Track | Start | Length | Start sector | End sector
---------------------------------------------------------
1 | 0:00.00 | 6:03.64 | 0 | 27288
2 | 6:03.64 | 5:09.33 | 27289 | 50496
3 | 11:13.22 | 5:05.12 | 50497 | 73383
4 | 16:18.34 | 6:12.60 | 73384 | 101343
5 | 22:31.19 | 4:48.72 | 101344 | 123015
6 | 27:20.16 | 5:19.52 | 123016 | 146992
7 | 32:39.68 | 4:59.27 | 146993 | 169444
8 | 37:39.20 | 3:27.56 | 169445 | 185025
9 | 41:07.01 | 4:14.05 | 185026 | 204080
10 | 45:21.06 | 4:16.32 | 204081 | 223312
11 | 49:37.38 | 2:49.62 | 223313 | 236049
12 | 52:27.25 | 2:46.59 | 236050 | 248558
Track 1
Filename G:\Flac Rips\01 - Fellenza.wav
Pre-gap length 0:00:02.00
Peak level 86.4 %
Extraction speed 3.8 X
Track quality 99.9 %
Test CRC 36CBAFA4
Copy CRC 36CBAFA4
Track not present in AccurateRip database
Copy OK
Track 2
Filename G:\Flac Rips\02 - Syte.wav
Peak level 85.7 %
Extraction speed 4.2 X
Track quality 99.9 %
Test CRC 0EC7460E
Copy CRC 0EC7460E
Track not present in AccurateRip database
Copy OK
Track 3
Filename G:\Flac Rips\03 - Ylberin.wav
Peak level 87.0 %
Extraction speed 6.1 X
Track quality 100.0 %
Test CRC 154A4C98
Copy CRC 154A4C98
Track not present in AccurateRip database
Copy OK
Track 4
Filename G:\Flac Rips\04 - Une ne koder, ti ne koder.wav
Peak level 76.5 %
Extraction speed 5.2 X
Track quality 99.9 %
Test CRC A786224B
Copy CRC A786224B
Track not present in AccurateRip database
Copy OK
Track 5
Filename G:\Flac Rips\05 - Kur te pashe.wav
Peak level 86.4 %
Extraction speed 7.1 X
Track quality 100.0 %
Test CRC 2005E73F
Copy CRC 2005E73F
Track not present in AccurateRip database
Copy OK
Track 6
Filename G:\Flac Rips\06 - Delja rude.wav
Peak level 86.3 %
Extraction speed 5.6 X
Track quality 99.9 %
Test CRC F8F62840
Copy CRC F8F62840
Track not present in AccurateRip database
Copy OK
Track 7
Filename G:\Flac Rips\07 - Une do te vete.wav
Peak level 86.5 %
Extraction speed 7.9 X
Track quality 100.0 %
Test CRC 632F95D3
Copy CRC 632F95D3
Track not present in AccurateRip database
Copy OK
Track 8
Filename G:\Flac Rips\08 - Taksirat.wav
Peak level 86.4 %
Extraction speed 7.8 X
Track quality 100.0 %
Test CRC BEB145A5
Copy CRC BEB145A5
Track not present in AccurateRip database
Copy OK
Track 9
Filename G:\Flac Rips\09 - Nene moj.wav
Peak level 86.3 %
Extraction speed 8.2 X
Track quality 100.0 %
Test CRC 9B85005B
Copy CRC 9B85005B
Track not present in AccurateRip database
Copy OK
Track 10
Filename G:\Flac Rips\10 - Bukuroshe.wav
Peak level 87.2 %
Extraction speed 8.5 X
Track quality 100.0 %
Test CRC 581070DB
Copy CRC 581070DB
Track not present in AccurateRip database
Copy OK
Track 11
Filename G:\Flac Rips\11 - Ti ri ti ti klarinate.wav
Peak level 78.5 %
Extraction speed 8.2 X
Track quality 100.0 %
Test CRC BBEA9EAC
Copy CRC BBEA9EAC
Track not present in AccurateRip database
Copy OK
Track 12
Filename G:\Flac Rips\12 - Dallendyshe.wav
Peak level 55.4 %
Extraction speed 8.3 X
Track quality 100.0 %
Test CRC F2D7A3D2
Copy CRC F2D7A3D2
Track not present in AccurateRip database
Copy OK
None of the tracks are present in the AccurateRip database
No errors occurred
End of status report
==== Log checksum D01DF547FD63E0766C320E3B45FDDE5B290EBE01854AF7E41D2ACD7CF04877E0 ====
 
Содержание индексной карты (.CUE)
REM GENRE Jazz
REM DATE 2015
REM DISCID B70CF20C
REM COMMENT "ExactAudioCopy v1.0b3"
PERFORMER "Elina Duni Quartet"
TITLE "Dallendyshe"
FILE "01 - Fellenza.wav" WAVE
TRACK 01 AUDIO
TITLE "Fellenza"
PERFORMER "Elina Duni Quartet"
INDEX 01 00:00:00
FILE "02 - Syte.wav" WAVE
TRACK 02 AUDIO
TITLE "Syte"
PERFORMER "Elina Duni Quartet"
INDEX 01 00:00:00
FILE "03 - Ylberin.wav" WAVE
TRACK 03 AUDIO
TITLE "Ylberin"
PERFORMER "Elina Duni Quartet"
INDEX 01 00:00:00
FILE "04 - Une ne koder, ti ne koder.wav" WAVE
TRACK 04 AUDIO
TITLE "Une ne koder, ti ne koder"
PERFORMER "Elina Duni Quartet"
INDEX 01 00:00:00
FILE "05 - Kur te pashe.wav" WAVE
TRACK 05 AUDIO
TITLE "Kur te pashe"
PERFORMER "Elina Duni Quartet"
INDEX 01 00:00:00
FILE "06 - Delja rude.wav" WAVE
TRACK 06 AUDIO
TITLE "Delja rude"
PERFORMER "Elina Duni Quartet"
INDEX 01 00:00:00
FILE "07 - Une do te vete.wav" WAVE
TRACK 07 AUDIO
TITLE "Une do te vete"
PERFORMER "Elina Duni Quartet"
INDEX 01 00:00:00
FILE "08 - Taksirat.wav" WAVE
TRACK 08 AUDIO
TITLE "Taksirat"
PERFORMER "Elina Duni Quartet"
INDEX 01 00:00:00
FILE "09 - Nene moj.wav" WAVE
TRACK 09 AUDIO
TITLE "Nene moj"
PERFORMER "Elina Duni Quartet"
INDEX 01 00:00:00
FILE "10 - Bukuroshe.wav" WAVE
TRACK 10 AUDIO
TITLE "Bukuroshe"
PERFORMER "Elina Duni Quartet"
INDEX 01 00:00:00
FILE "11 - Ti ri ti ti klarinate.wav" WAVE
TRACK 11 AUDIO
TITLE "Ti ri ti ti klarinate"
PERFORMER "Elina Duni Quartet"
INDEX 01 00:00:00
FILE "12 - Dallendyshe.wav" WAVE
TRACK 12 AUDIO
TITLE "Dallendyshe"
PERFORMER "Elina Duni Quartet"
INDEX 01 00:00:00
 
Отчет CUETools
[CUETools log; Date: 02.05.2015 1:43:28; Version: 2.1.5]
[CTDB TOCID: sqlgNWA3mbAcyf7Maf1q.kUXs.Q-] disk not present in database.
[AccurateRip ID: 001b4c45-00f98fd7-b70cf20c] disk not present in database.
Track Peak [ CRC32 ] [W/O NULL] [ LOG ]
-- 87,2 [8C478493] [B7C14976]
01 86,4 [36CBAFA4] [8657EB39] CRC32
02 85,7 [0EC7460E] [CFA72AB3] CRC32
03 87,0 [154A4C98] [488DE8E5] CRC32
04 76,5 [A786224B] [7F3DC20E] CRC32
05 86,4 [2005E73F] [CD9EF785] CRC32
06 86,3 [F8F62840] [3DCFCF07] CRC32
07 86,5 [632F95D3] [F66308B7] CRC32
08 86,4 [BEB145A5] [C5185572] CRC32
09 86,3 [9B85005B] [8D62EFF9] CRC32
10 87,2 [581070DB] [FDFAF548] CRC32
11 78,5 [BBEA9EAC] [C812B879] CRC32
12 55,4 [F2D7A3D2] [3F3514E5] CRC32
 
Об альбоме (сборнике)
The place where jazz and folk music meet sounds very much like the most fertile musical ground at present, if not always, and it’s one which the very astute people at this German record label have been bringing to our attention for more than 40 years.
Though raised and educated in Switzerland, it was to her birth land of Albania that Elina Duni looked for her musical material rather than jazz standards. And she has been ably assisted in this venture by Swiss pianist Colin Vallon. Their relationship reminds me a little of that between Welsh pianist Huw Warren and English singer June Tobin, except that Duni is a jazz singer singing folk music rather than a folk singer singing jazz.
This is the band’s second album for ECM – Patrice Moret is on double bass and Norbert Pfammatter on drums – and their empathetic playing is not only technically impeccable but also deeply felt. The material certainly deserves such complete musicianship.
Duni says this album is lighter in touch than its predecessor and explains: “One of the fascinating things about music of the Balkans, in a lot of folk music, is the idea that the pain has to be sung. And in singing you go beyond it. That’s what the blues is about, of course, and you find a similar sensibility in these Albanian songs about exile and lost love.”
Dallendyshe is translated as The Swallow, and it’s also the final track, one from the Arberesh community, who went to Italy from the Peloponnese in the 15th century. It’s a delicate duo piece from Duni and Vallon which brings this dramatic and diverse musical journey to a kind of open-ended finish. Like the best stories, it suggests there is more to come. Let’s hope so for we could do with a lot more music like this.
Для тех, кто любит lossless
05:57
698
Нет комментариев. Ваш будет первым!