Поиск

(Contemporary Jazz / Straight-Ahead Jazz) Kurt Rosenwinkel (Ben Street, Jeff Ballard, Mark Turner) - The Next Step - 2001 [Verve Records 3145430422], FLAC (tracks+.cue), lossless

(Contemporary Jazz / Straight-Ahead Jazz) Kurt Rosenwinkel (Ben Street, Jeff Ballard, Mark Turner) - The Next Step - 2001 [Verve Records 3145430422], FLAC (tracks+.cue), lossless
Треклист:
Kurt Rosenwinkel - The Next Step
Жанр: Contemporary Jazz / Straight-Ahead Jazz
Год издания: 2001
Издатель (лейбл): Verve Records
Номер по каталогу: 3145430422
Аудиокодек: FLAC (*.flac)
Тип рипа: tracks+.cue
Битрейт аудио: lossless
Продолжительность: 01:01:45
Источник (релизер): what.cd / спасибо CmdrChesticle
Наличие сканов в содержимом раздачи: нет
Треклист:
1. Zhivago (09:02)
2. Minor Blues (05:51)
3. A Shifting Design (07:08)
4. Path Of The Heart (06:15)
5. Filters (07:41)
6. Use Of Light (09:17)
7. The Next Step (09:55)
8. A Life Unfolds (06:29)
Доп. информация:
Musicians:
Kurt Rosenwinkel - guitar, piano (7)
Ben Street - bass
Jeff Ballard - drums
Mark Turner - tenor saxophone
Recorded May 12-14, 2000 at Avatar Studio, NY
Kurt Rosenwinkel Official Site
Kurt Rosenwinkel - The Next Step kurtrosenwinkel.com
Kurt Rosenwinkel - The Next Step allmusic.com
Kurt Rosenwinkel - The Next Step vervemusicgroup.com
 
... photo ...
 
 
 
... review ...
Guitarist Kurt Rosenwinkel takes The Next Step in his creative evolution on eight songs that exude several degrees of great jazz. He succeeds in topping the musical tastes presented on his debut release for the Verve label, The Enemies of Energy. Rosenwinkel is one of many young jazz musicians forging ahead into the new millennium with bold musical steps, and the compositions, all of which he wrote, represent the culmination of many life phases for him. First formed as a guitar-bass-drums trio in 1992, Rosenwinkel's band is now a quartet including Mark Turner on tenor saxophone, Ben Street on bass, and Jeff Ballard on drums, all excellent artists in their own right. All four musicians can be heard on The Enemies of Energy, and The Next Step is additional documentation of their relationship as a band. The CD opens with the melodic "Zhivago," a ballad inspired by the imagery of the motion picture Dr. Zhivago. "Minor Blues" is just that - with an up-tempo groove and plenty of room for improvisation; it is especially memorable. Turner's saxophone workout on "A Shifting Design" is spurred on by the great drumming of Ballard and the alternate tuning of Rosenwinkel's guitar. This song opens with a pensive introduction and develops into a swinging, "shifting design" of notes, chords, and great basslines. Ballardis fascinatingly rhythmic, and uses percussive elements in a wealth of creative experiments. The title track spotlights Rosenwinkel on piano in harmony with Turner's sax and shaded by Ballard and Street's rhythmic finesse. This song has an ageless style, and Rosenwinkel's execution is filled with great improvisational ideas. This is an excellent listening experience that builds from start to finish.
Paula Edelstein ~ AMG
 
 
Лог создания рипа
X Lossless Decoder version 20110924 (136.3)
XLD extraction logfile from 2011-11-04 02:36:55 +0000
Kurt Rosenwinkel / The Next Step
Used drive : MATSHITA DVD-R   UJ-8A8 (revision HA13)
Ripper mode             : XLD Secure Ripper
Disable audio cache     : OK for the drive with a cache less than 1375KiB
Make use of C2 pointers : NO
Read offset correction  : 102
Max retry count         : 100
Gap status              : Analyzed, Appended (except HTOA)
TOC of the extracted CD
     Track |   Start  |  Length  | Start sector | End sector
    ---------------------------------------------------------
        1  | 00:00:00 | 09:04:25 |         0    |    40824
        2  | 09:04:25 | 05:54:22 |     40825    |    67396
        3  | 14:58:47 | 07:11:45 |     67397    |    99766
        4  | 22:10:17 | 06:15:60 |     99767    |   127951
        5  | 28:26:02 | 07:43:68 |    127952    |   162744
        6  | 36:09:70 | 09:17:62 |    162745    |   204581
        7  | 45:27:57 | 10:01:73 |    204582    |   249729
        8  | 55:29:55 | 06:31:22 |    249730    |   279076
List of alternate offset correction values
        #  | Absolute | Relative | Confidence
    ------------------------------------------
        1  |   -557   |   -659   |      4
AccurateRip Summary
    Track 01 : OK (confidence 6)
    Track 02 : OK (confidence 6)
    Track 03 : OK (confidence 6)
    Track 04 : OK (confidence 6)
    Track 05 : OK (confidence 6)
    Track 06 : OK (confidence 6)
    Track 07 : OK (confidence 6)
    Track 08 : OK (confidence 5)
        ->All tracks accurately ripped.
All Tracks
    Album gain             : -3.87 dB
    Peak                   : 0.998901
    Statistics
        Read error                           : 0
        Jitter error (maybe fixed)           : 0
        Retry sector count                   : 0
        Damaged sector count                 : 0
Track 01
    Filename : /Users/ianwolff/Downloads/torrent seeding/Kurt Rosenwinkel - The Next Step (2000) [FLAC]/01 Zhivago.flac
    Pre-gap length : 00:02:00
    Track gain             : -3.38 dB
    Peak                   : 0.998901
    CRC32 hash (test run)  : 8B28BB8D
    CRC32 hash             : 8B28BB8D
    CRC32 hash (skip zero) : 9AAAA6F9
    AccurateRip signature  : E723378B
        ->Accurately ripped! (confidence 6)
    Statistics
        Read error                           : 0
        Jitter error (maybe fixed)           : 0
        Retry sector count                   : 0
        Damaged sector count                 : 0
Track 02
    Filename : /Users/ianwolff/Downloads/torrent seeding/Kurt Rosenwinkel - The Next Step (2000) [FLAC]/02 Minor Blues.flac
    Pre-gap length : 00:00:68
    Track gain             : -4.60 dB
    Peak                   : 0.998901
    CRC32 hash (test run)  : F3CB6263
    CRC32 hash             : F3CB6263
    CRC32 hash (skip zero) : 68E0806F
    AccurateRip signature  : 501C54C4
        ->Accurately ripped! (confidence 6)
    Statistics
        Read error                           : 0
        Jitter error (maybe fixed)           : 0
        Retry sector count                   : 0
        Damaged sector count                 : 0
Track 03
    Filename : /Users/ianwolff/Downloads/torrent seeding/Kurt Rosenwinkel - The Next Step (2000) [FLAC]/03 A Shifting Design.flac
    Pre-gap length : 00:02:47
    Track gain             : -4.08 dB
    Peak                   : 0.998901
    CRC32 hash (test run)  : 931EBC15
    CRC32 hash             : 931EBC15
    CRC32 hash (skip zero) : 40341B3E
    AccurateRip signature  : 70640744
        ->Accurately ripped! (confidence 6)
    Statistics
        Read error                           : 0
        Jitter error (maybe fixed)           : 0
        Retry sector count                   : 0
        Damaged sector count                 : 0
Track 04
    Filename : /Users/ianwolff/Downloads/torrent seeding/Kurt Rosenwinkel - The Next Step (2000) [FLAC]/04 Path Of The Heart.flac
    Pre-gap length : 00:02:72
    Track gain             : -2.90 dB
    Peak                   : 0.998901
    CRC32 hash (test run)  : 04EE5825
    CRC32 hash             : 04EE5825
    CRC32 hash (skip zero) : 5D4EC74E
    AccurateRip signature  : 3D074340
        ->Accurately ripped! (confidence 6)
    Statistics
        Read error                           : 0
        Jitter error (maybe fixed)           : 0
        Retry sector count                   : 0
        Damaged sector count                 : 0
Track 05
    Filename : /Users/ianwolff/Downloads/torrent seeding/Kurt Rosenwinkel - The Next Step (2000) [FLAC]/05 Filters.flac
    Pre-gap length : 00:00:02
    Track gain             : -4.57 dB
    Peak                   : 0.998901
    CRC32 hash (test run)  : 9454CEC7
    CRC32 hash             : 9454CEC7
    CRC32 hash (skip zero) : A7FA4B98
    AccurateRip signature  : 0CC6DCC0
        ->Accurately ripped! (confidence 6)
    Statistics
        Read error                           : 0
        Jitter error (maybe fixed)           : 0
        Retry sector count                   : 0
        Damaged sector count                 : 0
Track 06
    Filename : /Users/ianwolff/Downloads/torrent seeding/Kurt Rosenwinkel - The Next Step (2000) [FLAC]/06 Use Of Light.flac
    Pre-gap length : 00:02:28
    Track gain             : -3.81 dB
    Peak                   : 0.998901
    CRC32 hash (test run)  : 9EAF6BA5
    CRC32 hash             : 9EAF6BA5
    CRC32 hash (skip zero) : 30EFC62D
    AccurateRip signature  : F0B83FF2
        ->Accurately ripped! (confidence 6)
    Statistics
        Read error                           : 0
        Jitter error (maybe fixed)           : 0
        Retry sector count                   : 0
        Damaged sector count                 : 0
Track 07
    Filename : /Users/ianwolff/Downloads/torrent seeding/Kurt Rosenwinkel - The Next Step (2000) [FLAC]/07 The Next Step.flac
    Pre-gap length : 00:00:20
    Track gain             : -3.81 dB
    Peak                   : 0.998901
    CRC32 hash (test run)  : 0DBDCA8C
    CRC32 hash             : 0DBDCA8C
    CRC32 hash (skip zero) : B0994D81
    AccurateRip signature  : DBFF399B
        ->Accurately ripped! (confidence 6)
    Statistics
        Read error                           : 0
        Jitter error (maybe fixed)           : 0
        Retry sector count                   : 0
        Damaged sector count                 : 0
Track 08
    Filename : /Users/ianwolff/Downloads/torrent seeding/Kurt Rosenwinkel - The Next Step (2000) [FLAC]/08 A Life Unfolds.flac
    Pre-gap length : 00:06:43
    Track gain             : -2.22 dB
    Peak                   : 0.998871
    CRC32 hash (test run)  : 788A03A2
    CRC32 hash             : 788A03A2
    CRC32 hash (skip zero) : BC32D5BB
    AccurateRip signature  : E9A2E8F6
        ->Accurately ripped! (confidence 5)
    Statistics
        Read error                           : 0
        Jitter error (maybe fixed)           : 0
        Retry sector count                   : 0
        Damaged sector count                 : 0
No errors occurred
End of status report
 
 
Содержание индексной карты (.CUE)
TITLE "The Next Step"
PERFORMER "Kurt Rosenwinkel"
REM GENRE "Jazz"
REM DATE "2000"
REM DISCNUMBER 1
REM TOTALDISCS 1
REM DISCID 5C0E8908
REM REPLAYGAIN_ALBUM_GAIN -3.87 dB
REM REPLAYGAIN_ALBUM_PEAK 0.998901
FILE "01 Zhivago.flac" WAVE
  TRACK 01 AUDIO
    TITLE "Zhivago"
    ISRC USGR10000861
    REM REPLAYGAIN_TRACK_GAIN -3.38 dB
    REM REPLAYGAIN_TRACK_PEAK 0.998901
    INDEX 01 00:00:00
  TRACK 02 AUDIO
    TITLE "Minor Blues"
    ISRC USGR10000862
    REM REPLAYGAIN_TRACK_GAIN -4.60 dB
    REM REPLAYGAIN_TRACK_PEAK 0.998901
    INDEX 00 09:03:32
FILE "02 Minor Blues.flac" WAVE
    INDEX 01 00:00:00
  TRACK 03 AUDIO
    TITLE "A Shifting Design"
    ISRC USGR10000863
    REM REPLAYGAIN_TRACK_GAIN -4.08 dB
    REM REPLAYGAIN_TRACK_PEAK 0.998901
    INDEX 00 05:51:50
FILE "03 A Shifting Design.flac" WAVE
    INDEX 01 00:00:00
  TRACK 04 AUDIO
    TITLE "Path Of The Heart"
    ISRC USGR10000864
    REM REPLAYGAIN_TRACK_GAIN -2.90 dB
    REM REPLAYGAIN_TRACK_PEAK 0.998901
    INDEX 00 07:08:48
FILE "04 Path Of The Heart.flac" WAVE
    INDEX 01 00:00:00
  TRACK 05 AUDIO
    TITLE "Filters"
    ISRC USGR10000865
    REM REPLAYGAIN_TRACK_GAIN -4.57 dB
    REM REPLAYGAIN_TRACK_PEAK 0.998901
    INDEX 00 06:15:58
FILE "05 Filters.flac" WAVE
    INDEX 01 00:00:00
  TRACK 06 AUDIO
    TITLE "Use Of Light"
    ISRC USGR10000866
    REM REPLAYGAIN_TRACK_GAIN -3.81 dB
    REM REPLAYGAIN_TRACK_PEAK 0.998901
    INDEX 00 07:41:40
FILE "06 Use Of Light.flac" WAVE
    INDEX 01 00:00:00
  TRACK 07 AUDIO
    TITLE "The Next Step"
    ISRC USGR10000867
    REM REPLAYGAIN_TRACK_GAIN -3.81 dB
    REM REPLAYGAIN_TRACK_PEAK 0.998901
    INDEX 00 09:17:42
FILE "07 The Next Step.flac" WAVE
    INDEX 01 00:00:00
  TRACK 08 AUDIO
    TITLE "A Life Unfolds"
    ISRC USGR10000860
    REM REPLAYGAIN_TRACK_GAIN -2.22 dB
    REM REPLAYGAIN_TRACK_PEAK 0.998871
    INDEX 00 09:55:30
FILE "08 A Life Unfolds.flac" WAVE
    INDEX 01 00:00:00
 
 
auCDtect Task Manager
-----------------------
DON'T MODIFY THIS FILE
-----------------------
PERFORMER: auCDtect Task Manager, ver. 1.5.1RC6 build 1.5.1.7
Copyright (c) 2008-2010 y-soft. All rights reserved
http://y-soft.org
ANALYZER: auCDtect: CD records authenticity detector, version 0.8.2
Copyright (c) 2004 Oleg Berngardt. All rights reserved.
Copyright (c) 2004 Alexander Djourik. All rights reserved.
FILE: 08 A Life Unfolds.flac
  Size: 34244684 Hash: 297E666E1395300211365DA5698BD319 Accuracy: -m0
  Conclusion: CDDA 100%
  Signature: 9D2CBA4B8D6341B97EBE54D95C595D3039B687A7
FILE: 07 The Next Step.flac
  Size: 64985681 Hash: 28F20CA42A30D6FB973B0A40159D0046 Accuracy: -m0
  Conclusion: CDDA 100%
  Signature: FA0C8AB7A2EACA31C5BD8182A29A79B707B38B19
FILE: 06 Use Of Light.flac
  Size: 49395747 Hash: 7CBFCE494525DAD68D3C2E03E0F06129 Accuracy: -m0
  Conclusion: CDDA 100%
  Signature: ACE08CD6D39911AD8F0E98DCA555E08A48241C6B
FILE: 05 Filters.flac
  Size: 50901922 Hash: B46ABDB29EE0A4BAACA8D864EB7BFA91 Accuracy: -m0
  Conclusion: CDDA 100%
  Signature: CA78FE4D57D5450ED3F3662C9B293FA6B11FBA17
FILE: 04 Path Of The Heart.flac
  Size: 36127564 Hash: 07AA312300E7133D20EC1D442A246153 Accuracy: -m0
  Conclusion: CDDA 99%
  Signature: 1661262075E469FC51A31348EFC17D2E9855FF4F
FILE: 03 A Shifting Design.flac
  Size: 42766864 Hash: CEEE1E32FEC283BA3FC55D2061BA29A3 Accuracy: -m0
  Conclusion: CDDA 100%
  Signature: 26CC5E6604D4BFF950A1CF4462CB28AACD85C7A0
FILE: 02 Minor Blues.flac
  Size: 39489667 Hash: B18A9509BDF5781B1B12302AD5BB89F1 Accuracy: -m0
  Conclusion: CDDA 100%
  Signature: EF20394321EC9C03037320815836AB0455AC2873
FILE: 01 Zhivago.flac
  Size: 57679608 Hash: AD0F4E98012D6DE8EF43AD62DA7D04AB Accuracy: -m0
  Conclusion: CDDA 100%
  Signature: E64A664C1862EBCE5697B6DDDE635FA46C9CE414
... релизы с участием MARK TURNER на трекере ...
Download available for power users only.
21:06
619
Нет комментариев. Ваш будет первым!