Вы используете незарегистрированную версию компонента "Вкладки"!

Поиск

(Contemporary Jazz) Spencer Barefield - Oliver Lake - Andrew Cyrille - Live at Leverkusener Jazztage - 1990, FLAC (tracks+.cue) lossless

Треклист:
Spencer Barefield - Oliver Lake - Andrew Cyrille - Live at Leverkusener Jazztage
Жанр: Contemporary Jazz
Страна-производитель диска: Germany
Год издания диска: 1990
Издатель (лейбл): Sound Aspects Records
Номер по каталогу: SAS CD 039
Страна: Germany
Аудио кодек: FLAC (*.flac)
Тип рипа: tracks+.cue
Битрейт аудио: lossless
Продолжительность: 58:46
Источник (релизер): собственный рип с оригинального диска.
Наличие сканов в содержимом раздачи: да
Треклист:
01. Mirror World 10:46 Composed By - A. Spencer Barefield
02. Gallery 6:32 Composed By - Oliver Lake
03. Shell 7:53 Composed By - Andrew Cyrille
04. Akan V 8:23 Composed By - Andrew Cyrille
05. In Between 16:23 Composed By - A. Spencer Barefield
06. For Dancers 7:46 Composed By - Oliver Lake
 
Лог создания рипа
Exact Audio Copy V0.99 prebeta 5 from 4. May 2009
EAC extraction logfile from 6. December 2010, 21:23
Barefield - Lake - Cyrille / Live at Leverkusener Jazztage
Used drive : TSSTcorpCDDVDW SH-S222A Adapter: 1 ID: 0
Read mode : Secure
Utilize accurate stream : Yes
Defeat audio cache : Yes
Make use of C2 pointers : No
Read offset correction : 6
Overread into Lead-In and Lead-Out : No
Fill up missing offset samples with silence : Yes
Delete leading and trailing silent blocks : No
Null samples used in CRC calculations : Yes
Used interface : Native Win32 interface for Win NT & 2000
Gap handling : Appended to previous track
Used output format : User Defined Encoder
Selected bitrate : 768 kBit/s
Quality : High
Add ID3 tag : No
Command line compressor : C:\tool\Audio\Exact Audio Copy\FLAC\FLAC.EXE
Additional command line options : -V -8 -T "ARTIST=%a" -T "TITLE=%t" -T "ALBUM=%g" -T "TRACKNUMBER=%n" -T "GENRE=%m" %s
TOC of the extracted CD
Track | Start | Length | Start sector | End sector
---------------------------------------------------------
1 | 0:00.33 | 11:12.32 | 33 | 50464
2 | 11:12.65 | 6:38.43 | 50465 | 80357
3 | 17:51.33 | 8:03.70 | 80358 | 116652
4 | 25:55.28 | 8:33.25 | 116653 | 155152
5 | 34:28.53 | 16:31.42 | 155153 | 229519
6 | 51:00.20 | 7:49.13 | 229520 | 264707
Track 1
Filename C:\! RUTRACKER\ru up\Spencer Barefield - Leverkusen\01 - Mirror World.wav
Pre-gap length 0:00:02.33
Peak level 97.6 %
Track quality 99.9 %
Test CRC 9D2828B7
Copy CRC 9D2828B7
Accurately ripped (confidence 3) [4061E199]
Copy OK
Track 2
Filename C:\! RUTRACKER\ru up\Spencer Barefield - Leverkusen\02 - Gallery.wav
Pre-gap length 0:00:04.65
Peak level 97.7 %
Track quality 100.0 %
Test CRC C7D548C6
Copy CRC C7D548C6
Accurately ripped (confidence 3) [F392A475]
Copy OK
Track 3
Filename C:\! RUTRACKER\ru up\Spencer Barefield - Leverkusen\03 - Shell.wav
Pre-gap length 0:00:02.73
Peak level 98.9 %
Track quality 100.0 %
Test CRC 3E0C53D9
Copy CRC 3E0C53D9
Accurately ripped (confidence 3) [D8F1B27E]
Copy OK
Track 4
Filename C:\! RUTRACKER\ru up\Spencer Barefield - Leverkusen\04 - Akan V.wav
Pre-gap length 0:00:04.03
Peak level 74.8 %
Track quality 100.0 %
Test CRC A7371846
Copy CRC A7371846
Accurately ripped (confidence 3) [4BEA07C6]
Copy OK
Track 5
Filename C:\! RUTRACKER\ru up\Spencer Barefield - Leverkusen\05 - In Between.wav
Pre-gap length 0:00:02.40
Peak level 99.8 %
Track quality 100.0 %
Test CRC 50FF9B0D
Copy CRC 50FF9B0D
Accurately ripped (confidence 3) [B33720E7]
Copy OK
Track 6
Filename C:\! RUTRACKER\ru up\Spencer Barefield - Leverkusen\06 - For Dancers.wav
Pre-gap length 0:00:03.05
Peak level 95.4 %
Track quality 100.0 %
Test CRC 75B3B08F
Copy CRC 75B3B08F
Accurately ripped (confidence 3) [F8A6A4A6]
Copy OK
All tracks accurately ripped
No errors occurred
End of status report
 
Содержание индексной карты (.CUE)
REM GENRE Jazz
REM DATE 1989
REM DISCID 440DC906
REM COMMENT "ExactAudioCopy v0.99pb5"
CATALOG 0000000000000
PERFORMER "Barefield - Lake - Cyrille"
TITLE "Live at Leverkusener Jazztage"
FILE "01 - Mirror World.wav" WAVE
TRACK 01 AUDIO
TITLE "Mirror World"
PERFORMER "Barefield - Lake - Cyrille"
PREGAP 00:00:33
INDEX 01 00:00:00
TRACK 02 AUDIO
TITLE "Gallery"
PERFORMER "Barefield - Lake - Cyrille"
INDEX 00 11:07:42
FILE "02 - Gallery.wav" WAVE
INDEX 01 00:00:00
TRACK 03 AUDIO
TITLE "Shell"
PERFORMER "Barefield - Lake - Cyrille"
INDEX 00 06:35:45
FILE "03 - Shell.wav" WAVE
INDEX 01 00:00:00
TRACK 04 AUDIO
TITLE "Akan V"
PERFORMER "Barefield - Lake - Cyrille"
INDEX 00 07:59:67
FILE "04 - Akan V.wav" WAVE
INDEX 01 00:00:00
TRACK 05 AUDIO
TITLE "In Between"
PERFORMER "Barefield - Lake - Cyrille"
INDEX 00 08:30:60
FILE "05 - In Between.wav" WAVE
INDEX 01 00:00:00
TRACK 06 AUDIO
TITLE "For Dancers"
PERFORMER "Barefield - Lake - Cyrille"
INDEX 00 16:28:37
FILE "06 - For Dancers.wav" WAVE
INDEX 01 00:00:00
Доп. информация:
Recorded live in concert during Leverkusener Jazztage '89, October 7, 1989 Leverkusen, Germany.
 
Состав
A. Spencer Barefield - classical sympathetic & 12 string acoustic guitars
Oliver Lake - alto & soprano saxophones
Andrew Cyrille - drums
Any questions -> support@pro-jazz.com. По всем вопросам пишите -> support@pro-jazz.com
06:24
211
Нет комментариев. Ваш будет первым!