Поиск

(Contemporary Jazz) Renaud Garcia-Fons - Solo: The Marcevol Concert - 2012, FLAC (tracks+.cue), lossless

(Contemporary Jazz) Renaud Garcia-Fons - Solo: The Marcevol Concert - 2012, FLAC (tracks+.cue), lossless
Треклист:
Renaud Garcia-Fons / Solo: The Marcevol Concert
Жанр: Contemporary Jazz
Год издания: 2012
Издатель (лейбл): Enja
Номер по каталогу: ENJ-9581 2
Страна: France
Аудиокодек: FLAC (*.flac)
Тип рипа: tracks+.cue
Битрейт аудио: lossless
Продолжительность: 56:56
Источник (релизер): sddd
Наличие сканов в содержимом раздачи: нет
Треклист:
1. Palermo Notturno 6:25
2. Hacía Compostela 6:08
3. Kalimbass 5:53
4. Marcevol 6:23
5. Bajo De Guía (Bulería) 6:40
6. Voyage À Jeyhounabad 5:54
7. Yupanqui 4:49
8. Kurdish Mood 3:01
9. Pilgrim 4:09
10. Rock Wandering 3:01
11. Far Ballad 3:43
http://www.renaudgarciafons.com/
 
Лог создания рипа
Exact Audio Copy V1.0 beta 3 from 29. August 2011
EAC extraction logfile from 8. April 2012, 12:44
Renaud García-Fons / Solo - The Marcevol Concert
Used drive : Optiarc DVD RW AD-7560A Adapter: 0 ID: 0
Read mode : Secure
Utilize accurate stream : Yes
Defeat audio cache : Yes
Make use of C2 pointers : No
Read offset correction : 6
Overread into Lead-In and Lead-Out : No
Fill up missing offset samples with silence : Yes
Delete leading and trailing silent blocks : No
Null samples used in CRC calculations : Yes
Used interface : Native Win32 interface for Win NT & 2000
Gap handling : Appended to previous track
Used output format : User Defined Encoder
Selected bitrate : 1024 kBit/s
Quality : High
Add ID3 tag : No
Command line compressor : C:\Program Files (x86)\Exact Audio Copy\FLAC\FLAC.EXE
Additional command line options : -8 -V -T "ARTIST=%artist%" -T "TITLE=%title%" -T "ALBUM=%albumtitle%" -T "DATE=%year%" -T "TRACKNUMBER=%tracknr%" -T "GENRE=%genre%" -T "PERFORMER=%albuminterpret%" -T "COMPOSER=%composer%" %haslyrics%--tag-from-file=LYRICS="%lyricsfile%"%haslyrics% -T "ALBUMARTIST=%albumartist%" -T "DISCNUMBER=%cdnumber%" -T "TOTALDISCS=%totalcds%" -T "TOTALTRACKS=%numtracks%" -T "COMMENT=%comment%" %source% -o %dest%
TOC of the extracted CD
Track | Start | Length | Start sector | End sector
---------------------------------------------------------
1 | 0:00.00 | 6:25.04 | 0 | 28878
2 | 6:25.04 | 6:08.21 | 28879 | 56499
3 | 12:33.25 | 5:53.52 | 56500 | 83026
4 | 18:27.02 | 6:23.00 | 83027 | 111751
5 | 24:50.02 | 6:40.19 | 111752 | 141770
6 | 31:30.21 | 5:54.05 | 141771 | 168325
7 | 37:24.26 | 4:49.25 | 168326 | 190025
8 | 42:13.51 | 3:01.42 | 190026 | 203642
9 | 45:15.18 | 4:09.47 | 203643 | 222364
10 | 49:24.65 | 3:01.42 | 222365 | 235981
11 | 52:26.32 | 3:43.00 | 235982 | 252706
Track 1
Filename C:\EAC Rips\Renaud García-Fons\Solo - The Marcevol Concert\01 - Palermo Notturno.wav
Pre-gap length 0:00:02.00
Peak level 100.0 %
Extraction speed 3.0 X
Track quality 100.0 %
Test CRC B97A91B0
Copy CRC B97A91B0
Track not present in AccurateRip database
Copy OK
Track 2
Filename C:\EAC Rips\Renaud García-Fons\Solo - The Marcevol Concert\02 - Hacia Compostela.wav
Pre-gap length 0:00:02.10
Peak level 99.8 %
Extraction speed 3.4 X
Track quality 100.0 %
Test CRC 8CBE7D3B
Copy CRC 8CBE7D3B
Track not present in AccurateRip database
Copy OK
Track 3
Filename C:\EAC Rips\Renaud García-Fons\Solo - The Marcevol Concert\03 - Kalimbass.wav
Pre-gap length 0:00:02.00
Peak level 100.0 %
Extraction speed 3.8 X
Track quality 100.0 %
Test CRC F1A833D4
Copy CRC F1A833D4
Track not present in AccurateRip database
Copy OK
Track 4
Filename C:\EAC Rips\Renaud García-Fons\Solo - The Marcevol Concert\04 - Marcevol.wav
Pre-gap length 0:00:01.72
Peak level 80.5 %
Extraction speed 4.2 X
Track quality 100.0 %
Test CRC 2441537D
Copy CRC 2441537D
Track not present in AccurateRip database
Copy OK
Track 5
Filename C:\EAC Rips\Renaud García-Fons\Solo - The Marcevol Concert\05 - Bajo de Guía (Bulería).wav
Pre-gap length 0:00:02.10
Peak level 98.7 %
Extraction speed 4.5 X
Track quality 100.0 %
Test CRC E85E41B4
Copy CRC E85E41B4
Track not present in AccurateRip database
Copy OK
Track 6
Filename C:\EAC Rips\Renaud García-Fons\Solo - The Marcevol Concert\06 - Voyage à Jeyhounabad (inspired by Ostad Elahi Sheikh Amiri's style).wav
Pre-gap length 0:00:02.10
Peak level 88.0 %
Extraction speed 4.7 X
Track quality 100.0 %
Test CRC 971BCEE5
Copy CRC 971BCEE5
Track not present in AccurateRip database
Copy OK
Track 7
Filename C:\EAC Rips\Renaud García-Fons\Solo - The Marcevol Concert\07 - Yupanqui (dedicated to Atahualpa Yupanqui).wav
Pre-gap length 0:00:01.71
Peak level 98.8 %
Extraction speed 4.8 X
Track quality 100.0 %
Test CRC 8720D4D4
Copy CRC 8720D4D4
Track not present in AccurateRip database
Copy OK
Track 8
Filename C:\EAC Rips\Renaud García-Fons\Solo - The Marcevol Concert\08 - Kurdish Mood.wav
Pre-gap length 0:00:02.10
Peak level 80.9 %
Extraction speed 3.7 X
Track quality 99.9 %
Test CRC F3FD6F9C
Copy CRC F3FD6F9C
Track not present in AccurateRip database
Copy OK
Track 9
Filename C:\EAC Rips\Renaud García-Fons\Solo - The Marcevol Concert\09 - Pilgrim.wav
Pre-gap length 0:00:02.10
Peak level 98.8 %
Extraction speed 4.2 X
Track quality 99.9 %
Test CRC D04C8C57
Copy CRC D04C8C57
Track not present in AccurateRip database
Copy OK
Track 10
Filename C:\EAC Rips\Renaud García-Fons\Solo - The Marcevol Concert\10 - Rock Wandering.wav
Pre-gap length 0:00:02.00
Peak level 99.9 %
Extraction speed 3.9 X
Track quality 99.9 %
Test CRC 9C5D4C62
Copy CRC 9C5D4C62
Track not present in AccurateRip database
Copy OK
Track 11
Filename C:\EAC Rips\Renaud García-Fons\Solo - The Marcevol Concert\11 - Far Ballad.wav
Pre-gap length 0:00:02.10
Peak level 98.6 %
Extraction speed 5.2 X
Track quality 100.0 %
Test CRC 31955EA6
Copy CRC 31955EA6
Track not present in AccurateRip database
Copy OK
None of the tracks are present in the AccurateRip database
No errors occurred
End of status report
---- CUETools DB Plugin V2.1.3
[CTDB TOCID: r5xCViHMtWuYoEvw_3wPNzpBv8A-] disk not present in database, Submit result: r5xCViHMtWuYoEvw_3wPNzpBv8A- has been uploaded
==== Log checksum 296D107227356FEB18FD1DA3284E192355C467D06CDEA61C3BE41A205352F5C2 ====
 
Содержание индексной карты (.CUE)
REM GENRE Jazz
REM DATE 2012
REM DISCID A90D290B
REM COMMENT "ExactAudioCopy v1.0b3"
PERFORMER "Renaud Garcнa-Fons"
TITLE "Solo - The Marcevol Concert"
FILE "01 - Palermo Notturno.wav" WAVE
TRACK 01 AUDIO
TITLE "Palermo Notturno"
PERFORMER "Renaud Garcнa-Fons"
ISRC <cH]61208101
INDEX 01 00:00:00
TRACK 02 AUDIO
TITLE "Hacia Compostela"
PERFORMER "Renaud Garcнa-Fons"
ISRC <cH]61208102
INDEX 00 06:22:69
FILE "02 - Hacia Compostela.wav" WAVE
INDEX 01 00:00:00
TRACK 03 AUDIO
TITLE "Kalimbass"
PERFORMER "Renaud Garcнa-Fons"
ISRC <cH]61208103
INDEX 00 06:06:21
FILE "03 - Kalimbass.wav" WAVE
INDEX 01 00:00:00
TRACK 04 AUDIO
TITLE "Marcevol"
PERFORMER "Renaud Garcнa-Fons"
ISRC <cH]61208104
INDEX 00 05:51:55
FILE "04 - Marcevol.wav" WAVE
INDEX 01 00:00:00
TRACK 05 AUDIO
TITLE "Bajo de Guнa (Bulerнa)"
PERFORMER "Renaud Garcнa-Fons"
ISRC <cH]61208105
INDEX 00 06:20:65
FILE "05 - Bajo de Guнa (Bulerнa).wav" WAVE
INDEX 01 00:00:00
TRACK 06 AUDIO
TITLE "Voyage а Jeyhounabad (inspired by Ostad Elahi Sheikh Amiri's style)"
PERFORMER "Renaud Garcнa-Fons"
ISRC <cH]61208106
INDEX 00 06:38:09
FILE "06 - Voyage а Jeyhounabad (inspired by Ostad Elahi Sheikh Amiri's style).wav" WAVE
INDEX 01 00:00:00
TRACK 07 AUDIO
TITLE "Yupanqui (dedicated to Atahualpa Yupanqui)"
PERFORMER "Renaud Garcнa-Fons"
ISRC <cH]61208107
INDEX 00 05:52:09
FILE "07 - Yupanqui (dedicated to Atahualpa Yupanqui).wav" WAVE
INDEX 01 00:00:00
TRACK 08 AUDIO
TITLE "Kurdish Mood"
PERFORMER "Renaud Garcнa-Fons"
ISRC <cH]61208108
INDEX 00 04:47:15
FILE "08 - Kurdish Mood.wav" WAVE
INDEX 01 00:00:00
TRACK 09 AUDIO
TITLE "Pilgrim"
PERFORMER "Renaud Garcнa-Fons"
ISRC <cH]61208109
INDEX 00 02:59:32
FILE "09 - Pilgrim.wav" WAVE
INDEX 01 00:00:00
TRACK 10 AUDIO
TITLE "Rock Wandering"
PERFORMER "Renaud Garcнa-Fons"
ISRC <cH]61208110
INDEX 00 04:07:47
FILE "10 - Rock Wandering.wav" WAVE
INDEX 01 00:00:00
TRACK 11 AUDIO
TITLE "Far Ballad"
PERFORMER "Renaud Garcнa-Fons"
ISRC <cH]61208111
INDEX 00 02:59:32
FILE "11 - Far Ballad.wav" WAVE
INDEX 01 00:00:00
02:27
634
Нет комментариев. Ваш будет первым!