Поиск

(Contemporary Jazz) Renaud Garcia-Fons - Mediterrannees - 2011, FLAC (tracks+.cue), lossless

Renaud García-Fons - Méditerrannées
Жанр: Contemporary Jazz
Страна-производитель диска: Germany
Год издания диска: 2011
Издатель (лейбл): Enja Records
Номер по каталогу: ENJ-9563 2
Аудио кодек: FLAC (*.flac)
Тип рипа: tracks+.cue
Битрейт аудио: lossless
Продолжительность: 65:01
Наличие сканов в содержимом раздачи: нет
Источник (релизер): thepiratebay, thanks pastafari
Треклист:
1. Aljamiado
2. Luces de Lorca
3. Fortaleza
4. Los Secretos
5. Las Ramblas
6. La Demoiselle de Ceret
7. Camp d'Argeles
8. La Strada
9. Romsarom
10. Iraklio
11. Dalmatia
12. Mythologie
13. Bosphore
14. Bekaa
15. Hmar Nadir
16. Sinai
17. Safran
18. Poussiere de Ksar
Исполнители:
Renaud García-Fons - compositions and arrangements, double basses, tanbur, udu, bendir, cajon, daf, palmas
Claire Antonini - baroque lute, theorbo, târ, zither, bozouki
David Venitucci - accordion
Kiko Ruiz - flamenco guitar, palmas
Adel Shams - el-din rik, derbouka
Bruno Caillat - zarb, rik, daf
Bruno Sansalone - clarinets
Henri Tournier - bansuris, alto flute, bass and octobass
Solea García-Fons - vocal in "Los Secretos"
 
Лог EAC
Exact Audio Copy V0.99 prebeta 5 from 4. May 2009
EAC extraction logfile from 30. April 2011, 22:15
Renaud Garcia-Fons / Mйditerrannйes
Used drive : TSSTcorpCDDVDW TS-H653N Adapter: 2 ID: 2
Read mode : Secure
Utilize accurate stream : Yes
Defeat audio cache : Yes
Make use of C2 pointers : No
Read offset correction : 6
Overread into Lead-In and Lead-Out : No
Fill up missing offset samples with silence : Yes
Delete leading and trailing silent blocks : No
Null samples used in CRC calculations : Yes
Used interface : Native Win32 interface for Win NT & 2000
Gap handling : Appended to previous track
Used output format : User Defined Encoder
Selected bitrate : 128 kBit/s
Quality : High
Add ID3 tag : No
Command line compressor : C:\Program Files\Exact Audio Copy\Flac\flac.exe
Additional command line options : -5 -V -T "artist=%a" -T "title=%t" -T "album=%g" -T "date=%y" -T "tracknumber=%n" -T "genre=%m" -T "comment=shared by pastafari cubensis" %s
TOC of the extracted CD
Track | Start | Length | Start sector | End sector
---------------------------------------------------------
1 | 0:00.00 | 5:05.28 | 0 | 22902
2 | 5:05.28 | 3:26.09 | 22903 | 38361
3 | 8:31.37 | 4:42.14 | 38362 | 59525
4 | 13:13.51 | 2:12.62 | 59526 | 69487
5 | 15:26.38 | 2:35.56 | 69488 | 81168
6 | 18:02.19 | 1:36.24 | 81169 | 88392
7 | 19:38.43 | 4:24.57 | 88393 | 108249
8 | 24:03.25 | 3:10.36 | 108250 | 122535
9 | 27:13.61 | 3:19.13 | 122536 | 137473
10 | 30:32.74 | 3:50.43 | 137474 | 154766
11 | 34:23.42 | 3:05.11 | 154767 | 168652
12 | 37:28.53 | 3:33.04 | 168653 | 184631
13 | 41:01.57 | 4:48.15 | 184632 | 206246
14 | 45:49.72 | 2:54.21 | 206247 | 219317
15 | 48:44.18 | 2:28.50 | 219318 | 230467
16 | 51:12.68 | 4:35.27 | 230468 | 251119
17 | 55:48.20 | 5:08.09 | 251120 | 274228
18 | 60:56.29 | 4:05.64 | 274229 | 292667
Track 1
Filename C:\pastafari\Renaud Garcia-Fons - 2010 - Mйditerrannйes [FLAC]\01 - Aljamiado.wav
Pre-gap length 0:00:02.00
Peak level 98.8 %
Track quality 100.0 %
Test CRC 72794E25
Copy CRC 72794E25
Copy OK
Track 2
Filename C:\pastafari\Renaud Garcia-Fons - 2010 - Mйditerrannйes [FLAC]\02 - Luces de Lorca.wav
Pre-gap length 0:00:02.50
Peak level 98.8 %
Track quality 100.0 %
Test CRC 820B3C30
Copy CRC 820B3C30
Copy OK
Track 3
Filename C:\pastafari\Renaud Garcia-Fons - 2010 - Mйditerrannйes [FLAC]\03 - Fortaleza.wav
Pre-gap length 0:00:01.50
Peak level 98.8 %
Track quality 100.0 %
Test CRC 91BCC181
Copy CRC 91BCC181
Copy OK
Track 4
Filename C:\pastafari\Renaud Garcia-Fons - 2010 - Mйditerrannйes [FLAC]\04 - Los Secretos.wav
Pre-gap length 0:00:02.01
Peak level 99.0 %
Track quality 99.9 %
Test CRC 56CEFEB0
Copy CRC 56CEFEB0
Copy OK
Track 5
Filename C:\pastafari\Renaud Garcia-Fons - 2010 - Mйditerrannйes [FLAC]\05 - Las Ramblas.wav
Peak level 98.8 %
Track quality 99.9 %
Test CRC ECB07484
Copy CRC ECB07484
Copy OK
Track 6
Filename C:\pastafari\Renaud Garcia-Fons - 2010 - Mйditerrannйes [FLAC]\06 - La Demoiselle de Cйret.wav
Pre-gap length 0:00:01.00
Peak level 79.9 %
Track quality 99.8 %
Test CRC 44456B47
Copy CRC 44456B47
Copy OK
Track 7
Filename C:\pastafari\Renaud Garcia-Fons - 2010 - Mйditerrannйes [FLAC]\07 - Camp d'Argeles.wav
Peak level 94.4 %
Track quality 100.0 %
Test CRC 6C2C98A9
Copy CRC 6C2C98A9
Copy OK
Track 8
Filename C:\pastafari\Renaud Garcia-Fons - 2010 - Mйditerrannйes [FLAC]\08 - La Strada.wav
Peak level 94.6 %
Track quality 100.0 %
Test CRC 45AC2B5A
Copy CRC 45AC2B5A
Copy OK
Track 9
Filename C:\pastafari\Renaud Garcia-Fons - 2010 - Mйditerrannйes [FLAC]\09 - Romsarom.wav
Pre-gap length 0:00:01.18
Peak level 98.8 %
Track quality 100.0 %
Test CRC 91AEF63B
Copy CRC 91AEF63B
Copy OK
Track 10
Filename C:\pastafari\Renaud Garcia-Fons - 2010 - Mйditerrannйes [FLAC]\10 - Iraklio.wav
Peak level 98.8 %
Track quality 100.0 %
Test CRC 75F3DC9E
Copy CRC 75F3DC9E
Copy OK
Track 11
Filename C:\pastafari\Renaud Garcia-Fons - 2010 - Mйditerrannйes [FLAC]\11 - Dalmatia.wav
Peak level 98.8 %
Track quality 100.0 %
Test CRC 24602747
Copy CRC 24602747
Copy OK
Track 12
Filename C:\pastafari\Renaud Garcia-Fons - 2010 - Mйditerrannйes [FLAC]\12 - Mythologie.wav
Pre-gap length 0:00:01.13
Peak level 98.8 %
Track quality 100.0 %
Test CRC 3E4B8737
Copy CRC 3E4B8737
Copy OK
Track 13
Filename C:\pastafari\Renaud Garcia-Fons - 2010 - Mйditerrannйes [FLAC]\13 - Bosphore.wav
Peak level 82.4 %
Track quality 99.9 %
Test CRC D3F802BC
Copy CRC D3F802BC
Copy OK
Track 14
Filename C:\pastafari\Renaud Garcia-Fons - 2010 - Mйditerrannйes [FLAC]\14 - Bekaa.wav
Peak level 98.8 %
Track quality 100.0 %
Test CRC CB25CCB3
Copy CRC CB25CCB3
Copy OK
Track 15
Filename C:\pastafari\Renaud Garcia-Fons - 2010 - Mйditerrannйes [FLAC]\15 - Hmar Nadir.wav
Peak level 98.8 %
Track quality 100.0 %
Test CRC 95577BF4
Copy CRC 95577BF4
Copy OK
Track 16
Filename C:\pastafari\Renaud Garcia-Fons - 2010 - Mйditerrannйes [FLAC]\16 - Sinaп.wav
Peak level 80.3 %
Track quality 100.0 %
Test CRC C5520021
Copy CRC C5520021
Copy OK
Track 17
Filename C:\pastafari\Renaud Garcia-Fons - 2010 - Mйditerrannйes [FLAC]\17 - Safran.wav
Pre-gap length 0:00:02.70
Peak level 98.8 %
Track quality 99.9 %
Test CRC D29D7AE6
Copy CRC D29D7AE6
Copy OK
Track 18
Filename C:\pastafari\Renaud Garcia-Fons - 2010 - Mйditerrannйes [FLAC]\18 - Poussiиre de Ksar.wav
Pre-gap length 0:00:01.50
Peak level 98.8 %
Track quality 100.0 %
Test CRC 817154D4
Copy CRC 817154D4
Copy OK
No errors occurred
End of status report
 
Содержание индексной карты (.CUE)
REM GENRE World
REM DATE 2010
REM DISCID F70F3E12
REM COMMENT "ExactAudioCopy v0.99pb5"
PERFORMER "Renaud Garcia-Fons"
TITLE "Mйditerrannйes"
FILE "Renaud Garcia-Fons - 2010 - Mйditerrannйes [FLAC]\01 - Aljamiado.wav" WAVE
TRACK 01 AUDIO
TITLE "Aljamiado"
PERFORMER "Renaud Garcia-Fons"
INDEX 01 00:00:00
TRACK 02 AUDIO
TITLE "Luces de Lorca"
PERFORMER "Renaud Garcia-Fons"
INDEX 00 05:02:65
FILE "Renaud Garcia-Fons - 2010 - Mйditerrannйes [FLAC]\02 - Luces de Lorca.wav" WAVE
INDEX 01 00:00:00
TRACK 03 AUDIO
TITLE "Fortaleza"
PERFORMER "Renaud Garcia-Fons"
INDEX 00 03:24:46
FILE "Renaud Garcia-Fons - 2010 - Mйditerrannйes [FLAC]\03 - Fortaleza.wav" WAVE
INDEX 01 00:00:00
TRACK 04 AUDIO
TITLE "Los Secretos"
PERFORMER "Renaud Garcia-Fons"
INDEX 00 04:40:13
FILE "Renaud Garcia-Fons - 2010 - Mйditerrannйes [FLAC]\04 - Los Secretos.wav" WAVE
INDEX 01 00:00:00
FILE "Renaud Garcia-Fons - 2010 - Mйditerrannйes [FLAC]\05 - Las Ramblas.wav" WAVE
TRACK 05 AUDIO
TITLE "Las Ramblas"
PERFORMER "Renaud Garcia-Fons"
INDEX 01 00:00:00
TRACK 06 AUDIO
TITLE "La Demoiselle de Cйret"
PERFORMER "Renaud Garcia-Fons"
INDEX 00 02:34:56
FILE "Renaud Garcia-Fons - 2010 - Mйditerrannйes [FLAC]\06 - La Demoiselle de Cйret.wav" WAVE
INDEX 01 00:00:00
FILE "Renaud Garcia-Fons - 2010 - Mйditerrannйes [FLAC]\07 - Camp d'Argeles.wav" WAVE
TRACK 07 AUDIO
TITLE "Camp d'Argeles"
PERFORMER "Renaud Garcia-Fons"
INDEX 01 00:00:00
FILE "Renaud Garcia-Fons - 2010 - Mйditerrannйes [FLAC]\08 - La Strada.wav" WAVE
TRACK 08 AUDIO
TITLE "La Strada"
PERFORMER "Renaud Garcia-Fons"
INDEX 01 00:00:00
TRACK 09 AUDIO
TITLE "Romsarom"
PERFORMER "Renaud Garcia-Fons"
INDEX 00 03:09:22
FILE "Renaud Garcia-Fons - 2010 - Mйditerrannйes [FLAC]\09 - Romsarom.wav" WAVE
INDEX 01 00:00:00
FILE "Renaud Garcia-Fons - 2010 - Mйditerrannйes [FLAC]\10 - Iraklio.wav" WAVE
TRACK 10 AUDIO
TITLE "Iraklio"
PERFORMER "Renaud Garcia-Fons"
INDEX 01 00:00:00
FILE "Renaud Garcia-Fons - 2010 - Mйditerrannйes [FLAC]\11 - Dalmatia.wav" WAVE
TRACK 11 AUDIO
TITLE "Dalmatia"
PERFORMER "Renaud Garcia-Fons"
INDEX 01 00:00:00
TRACK 12 AUDIO
TITLE "Mythologie"
PERFORMER "Renaud Garcia-Fons"
INDEX 00 03:04:01
FILE "Renaud Garcia-Fons - 2010 - Mйditerrannйes [FLAC]\12 - Mythologie.wav" WAVE
INDEX 01 00:00:00
FILE "Renaud Garcia-Fons - 2010 - Mйditerrannйes [FLAC]\13 - Bosphore.wav" WAVE
TRACK 13 AUDIO
TITLE "Bosphore"
PERFORMER "Renaud Garcia-Fons"
INDEX 01 00:00:00
FILE "Renaud Garcia-Fons - 2010 - Mйditerrannйes [FLAC]\14 - Bekaa.wav" WAVE
TRACK 14 AUDIO
TITLE "Bekaa"
PERFORMER "Renaud Garcia-Fons"
INDEX 01 00:00:00
FILE "Renaud Garcia-Fons - 2010 - Mйditerrannйes [FLAC]\15 - Hmar Nadir.wav" WAVE
TRACK 15 AUDIO
TITLE "Hmar Nadir"
PERFORMER "Renaud Garcia-Fons"
INDEX 01 00:00:00
FILE "Renaud Garcia-Fons - 2010 - Mйditerrannйes [FLAC]\16 - Sinaп.wav" WAVE
TRACK 16 AUDIO
TITLE "Sinaп"
PERFORMER "Renaud Garcia-Fons"
INDEX 01 00:00:00
TRACK 17 AUDIO
TITLE "Safran"
PERFORMER "Renaud Garcia-Fons"
INDEX 00 04:32:49
FILE "Renaud Garcia-Fons - 2010 - Mйditerrannйes [FLAC]\17 - Safran.wav" WAVE
INDEX 01 00:00:00
TRACK 18 AUDIO
TITLE "Poussiиre de Ksar"
PERFORMER "Renaud Garcia-Fons"
INDEX 00 05:06:46
FILE "Renaud Garcia-Fons - 2010 - Mйditerrannйes [FLAC]\18 - Poussiиre de Ksar.wav" WAVE
INDEX 01 00:00:00
 
Reviews
“The project of a musical voyage grew slowly with me – I guess it has to do with my Spanish and Italian roots. The trip that we take here begins on the most Southern tip of Spain, progresses along the Northern Mediterranean coast until it reaches the Bosporus, turns south to the Lebanon, then Egypt and winds up on the North – African side of the Gibraltar straits. There is nothing ethno-musical or touristy on this journey but simply the desire to be led on the passionate path propelled by the melodies. Melody is at any rate the connecting link of all Mediterranean people! I began each composition with simple melodies, sometimes solemn, but also joyful, dancing or meditative – each time another possibility to dig into an emotion, a scent or an atmosphere. On each step a new rhythm, a new orchestration, sketches of images, fragments of different lifes surface. This voyage is an exploration of the chain that links East and West in the sense the forgotten language Aljamiado ( literature spoken in Spanish but written in the Arabic consonant language) to which the first piece is dedicated.“ -- Renaud García-Fons The career of the extraordinary bassist develops rapidly. Each new release by him is watched with great attention as it throws yet another light on his musical cosmos. And now he turns more and more toward his Mediterranean roots. His 5-string technique on the double bass is unsurpassed and admired globally. After his solid European success (ECHO prize category bass in Germany 2010) he now stretches out crossing the Atlantic (front cover of US Bassman magazine) on his fourth tour through the USA and Canada within three years. At most welcome surprise is the participation of his 17 year old daughter Solea who does the vocal on Los Secretos.
Unlike some of Garcia-Fons' previous recordings, the new album is not centered on his five-string acoustic bass, but rather on composition. Nevertheless, Yatrika Shah-Rais -- music director at the Skirball Cultural Center in Los Angeles, where Garcia-Fons performed recently with his quartet -- says Garcia-Fons is a virtuoso.
"This is a world-class musician that deserves to be truly acknowledged for what he does," Shah-Rais says. "He's unique in every sense of the word. He's unique in his approach to compositions, to his music. He's unique in his technique. He's unique in the way that he has revolutionized the bass, and simply he has a fantastic band."
Garcia-Fons says he's always been intrigued with the notion that the roots of Western music come from the East. And he says that thread is present, not just in Western Europe, but also in the Americas.
"This is a fascinating point for me. And this is what also I really appreciate in all American music, from South to North, is that we can feel this influence from the Mediterranean area," Garcia-Fons says. "I think maybe the common relative is baroque music. I heard that many baroque musicians find some codex, for example, in Mexico, so I think this was one of the bridge for the music to come here and to meet other culture, other people.
Renaud Garcia-Fons is known among jazz fans as an ear-popping virtuoso of the acoustic bass. The sounds he conjures from his five-string instrument have won him admirers around the world. But for his latest project, the Spanish-French musician says he wanted to concentrate on composition -- specifically the sounds of the Mediterranean -- while searching for a bridge between the music of the East and the West.
Garcia-Fons says the initial thinking behind his new album, Mediterranees, was not to compose music for a band, but to make a concept album inspired by music across the Mediterranean and the search for a common identity. That process took him back to his childhood.
"When I was in family, I was of course listening to Spanish music," he says. "But when I grew up in Paris, I had a chance to listen to many different music from north of Africa, which is Mediterranean. After that, I had really a passion for all music coming from Middle East, from Turkey, Lebanon, Egypt."
Garcia-Fons says all of these different styles of music share common elements, and that he wanted to find the connections.
"We have some bridges, but also, of course, each tradition is unique," he says. "The sense of this music was also to try to establish some bridges between."
Garcia-Fons' exploration begins in Andalucia, in the south of Spain, with a piece called "Aljamiado" -- its title a reference to the Spanish language from the time when the region was ruled by the Moors.
"For me, it's a good illustration of the union between Occident and Orient," Garcia-Fons says. His music moves from West to East, from Spain to the South of France, Italy and Greece, to the northern tip of the Mediterranean.
"So all the first pieces are more on the 'occidental way,' and then the big change starts in the piece called 'Bosphore,' " he says. "Because the trip arrive finally on the Bosphorus, so we reach the border with the Orient and start more Oriental influences.
Новый альбом ("Mediterrannees" - это и "Средиземноморье", и "Непокорный") франко-каталонского контрабасиста!Рено Гарсия-Фонс - французский музыкант, композитор, называемый иногда "Паганини контрабаса". Родился 24 декабря 1962 года в семье выходцев из Каталонии. В пять лет начал заниматься музыкой (фортепиано), в 8 взял в руки гитару, контрабас же стал осваивать только в 16. Закончил парижскую консерваторию, кроме этого брал частные уроки у оказавшего на Рено огромное влияние Франсуа Раббата. В 1987 вошел в состав L'Orchestre de Contrebasses, с которым выступал yна протяжении шести лет. В 1992-ом на Enja Records вышел первый альбом Гарсии-Фонса "Légendes". Помимо собственного коллектива был членом трио гитариста Nguyên Lê, работал в Orchestre National de Jazz п/у Клода Бартелеми, сотрудничал с Jean-Louis Matinier, Michel Godard, Gerard Marais, Dhafer Youssef и др. Сейчас пишет музыку для балета "Кармен", постановка которого запланирована в лиможском Grand Theatre на 2012 год. (оф. сайт)На трекере
Конечно, то, что вытворяет на своем контрабасе француз Рено Гарсия-Фонс, не поддается никакому описанию — чистый высший музыкальный пилотаж. Тут дело даже не в самой виртуозности, хотя его манера игры смычком поразительна — контрабас (с дополнительной пятой струной) порой звучит то как виолончель, то почти как альт(!), а то и как целая группа струнных. Гарсия-Фонс попросту сделал из контрабаса абсолютно полноценный ведущий солирующий инструмент. До него, конечно, и в джазе и в современной академической классике этот инструмент добился роли сольного, но все равно на нем лежал какой-то оттенок второстепенности. Послушав альбомы этого французского музыканта, можно убедиться в том, что с предыдущей ролью его инструмента покончено навсегда. Гарсия-Фонс одинаково легко и изящно играет смычком и пиццикато — контрабас поет и танцует в его руках... (Евгений Долгих)
21:50
674
Нет комментариев. Ваш будет первым!