Вы используете незарегистрированную версию компонента "Вкладки"!

Поиск

(Contemporary Jazz / Post Bop / Piano) Jean-Michel Pilc / Francois Moutin / Ari Hoenig - Threedom - 2011, FLAC (tracks+.cue), lossless

(Contemporary Jazz / Post Bop / Piano) Jean-Michel Pilc / Francois Moutin / Ari Hoenig - Threedom - 2011, FLAC (tracks+.cue), lossless
Треклист:
Jean-Michel Pilc, Francois Moutin , Ari Hoenig - Threedom
Жанр: Contemporary Jazz, Post Bop, Piano
Страна: France
Год издания диска: 2011
Издатель (лейбл): Motéma Music LLC
Номер по каталогу: MTM-72
Аудиокодек: FLAC (*.flac)
Тип рипа: tracks+.cue
Битрейт аудио: lossless
Продолжительность: 01:12:02
Источник (релизер): what
Наличие сканов в содержимом раздачи: Нет
Треклист:
1. Nardis (07:15)
2. Think of One (02:31)
3. Morning (03:52)
4. A Foggy Day (03:20)
5. You and the Night and the Music (02:32)
6. Birth (04:08)
7. Slow (03:22)
8. Touch (01:51)
9. Giant Steps (02:31)
10. Afro Blue (04:36)
11. The Grinch Dance (05:01)
12. Dusk (02:10)
13. Lily (05:40)
14. Threedom (02:11)
15. Hymn For Her (03:31
16. I'm Beginning To See the Light (02:51)
17. Confirmation (03:26)
18. Smile (05:01)

 
Об альбоме
Samples http://www.motema.com/artist/pilc-moutin-hoenig
find the bonus video at motema.com at samples address
Recorded in a completely improvised stream of single takes in the studio, 'Threedom' - from the fiery and visionary Pilc Moutin Hoenig trio - marks the members' first recording together since they first rocked the jazz world as the explosive 'Jean-Michel Pilc Trio' in 2002, igniting crowds at festivals across Europe.
The disc brilliantly documents the group's singular and completely unpredictable improvisational synchronicity. Pilc, a major player on the European and Canadian jazz circuit, is rapidly gaining ground in America as one of the most exciting and unpredictable pianists in jazz. Hoenig was recently named by Time Out New York as one of "The 25 Essential New York City Jazz Icons." He has gained a great deal of press exposure due to his recent solo release, 'Lines of Oppression'. Moutin tours steadily with The Moutin Brothers and the quartet has recently been featured in Downbeat magazine, All Music Guide, All About Jazz NY and the Chicago Examiner.
Personnel: Jean-Michel Pilc (piano), Francois Moutin (bass), Ari Hoenig (drums)

 
Лог создания рипа
Exact Audio Copy V1.0 beta 3 from 29. August 2011
EAC extraction logfile from 4. April 2012, 18:38
Pilc, Moutin, Hoenig / Threedom
Used drive : PLEXTOR DVDR PX-860A Adapter: 0 ID: 0
Read mode : Secure
Utilize accurate stream : Yes
Defeat audio cache : Yes
Make use of C2 pointers : No
Read offset correction : 96
Overread into Lead-In and Lead-Out : No
Fill up missing offset samples with silence : Yes
Delete leading and trailing silent blocks : No
Null samples used in CRC calculations : Yes
Used interface : Native Win32 interface for Win NT & 2000
Gap handling : Appended to previous track
Used output format : User Defined Encoder
Selected bitrate : 1024 kBit/s
Quality : High
Add ID3 tag : No
Command line compressor : C:\Program Files\Exact Audio Copy 3\Flac\flac.exe
Additional command line options : -8 -V -T "ARTIST=%artist%" -T "TITLE=%title%" -T "ALBUM=%albumtitle%" -T "DATE=%year%" -T "TRACKNUMBER=%tracknr%" -T "GENRE=%genre%" -T "PERFORMER=%albuminterpret%" -T "COMPOSER=%composer%" %haslyrics%--tag-from-file=LYRICS="%lyricsfile%"%haslyrics% -T "ALBUMARTIST=%albumartist%" -T "DISCNUMBER=%cdnumber%" -T "TOTALDISCS=%totalcds%" -T "TOTALTRACKS=%numtracks%" -T "COMMENT=%comment%" %source% -o %dest%
TOC of the extracted CD
Track | Start | Length | Start sector | End sector
---------------------------------------------------------
1 | 0:00.00 | 7:16.65 | 0 | 32764
2 | 7:16.65 | 2:32.71 | 32765 | 44235
3 | 9:49.61 | 3:53.14 | 44236 | 61724
4 | 13:43.00 | 3:21.07 | 61725 | 76806
5 | 17:04.07 | 2:33.58 | 76807 | 88339
6 | 19:37.65 | 4:09.23 | 88340 | 107037
7 | 23:47.13 | 3:23.32 | 107038 | 122294
8 | 27:10.45 | 1:52.31 | 122295 | 130725
9 | 29:03.01 | 2:32.09 | 130726 | 142134
10 | 31:35.10 | 4:37.30 | 142135 | 162939
11 | 36:12.40 | 5:02.48 | 162940 | 185637
12 | 41:15.13 | 2:11.33 | 185638 | 195495
13 | 43:26.46 | 5:41.38 | 195496 | 221108
14 | 49:08.09 | 2:12.44 | 221109 | 231052
15 | 51:20.53 | 3:32.30 | 231053 | 246982
16 | 54:53.08 | 2:52.49 | 246983 | 259931
17 | 57:45.57 | 3:27.60 | 259932 | 275516
18 | 61:13.42 | 5:00.24 | 275517 | 298040
19 | 68:45.66 | 3:17.06 | 309441 | 324221
Track 1
Filename I:\DL\Pilc, Moutin, Hoenig - Threedom (2011) [FLAC]\01 - Nardis.wav
Pre-gap length 0:00:02.00
Peak level 97.7 %
Extraction speed 5.0 X
Track quality 100.0 %
Test CRC 7E3D6DF0
Copy CRC 7E3D6DF0
Track not present in AccurateRip database
Copy OK
Track 2
Filename I:\DL\Pilc, Moutin, Hoenig - Threedom (2011) [FLAC]\02 - Think of One.wav
Peak level 96.6 %
Extraction speed 4.0 X
Track quality 99.9 %
Test CRC D1C63A2D
Copy CRC D1C63A2D
Track not present in AccurateRip database
Copy OK
Track 3
Filename I:\DL\Pilc, Moutin, Hoenig - Threedom (2011) [FLAC]\03 - Morning.wav
Peak level 96.8 %
Extraction speed 5.4 X
Track quality 100.0 %
Test CRC 1C78C047
Copy CRC 1C78C047
Track not present in AccurateRip database
Copy OK
Track 4
Filename I:\DL\Pilc, Moutin, Hoenig - Threedom (2011) [FLAC]\04 - A Foggy Day.wav
Peak level 97.2 %
Extraction speed 5.5 X
Track quality 100.0 %
Test CRC 2266CF07
Copy CRC 2266CF07
Track not present in AccurateRip database
Copy OK
Track 5
Filename I:\DL\Pilc, Moutin, Hoenig - Threedom (2011) [FLAC]\05 - You and the Night and the Music.wav
Peak level 97.1 %
Extraction speed 5.5 X
Track quality 100.0 %
Test CRC CA50D0A7
Copy CRC CA50D0A7
Track not present in AccurateRip database
Copy OK
Track 6
Filename I:\DL\Pilc, Moutin, Hoenig - Threedom (2011) [FLAC]\06 - Birth.wav
Peak level 57.9 %
Extraction speed 5.6 X
Track quality 99.9 %
Test CRC 06083432
Copy CRC 06083432
Track not present in AccurateRip database
Copy OK
Track 7
Filename I:\DL\Pilc, Moutin, Hoenig - Threedom (2011) [FLAC]\07 - Slow.wav
Peak level 92.0 %
Extraction speed 6.3 X
Track quality 100.0 %
Test CRC 63338A01
Copy CRC 63338A01
Track not present in AccurateRip database
Copy OK
Track 8
Filename I:\DL\Pilc, Moutin, Hoenig - Threedom (2011) [FLAC]\08 - Touch.wav
Peak level 56.7 %
Extraction speed 5.8 X
Track quality 100.0 %
Test CRC 70CB95AF
Copy CRC 70CB95AF
Track not present in AccurateRip database
Copy OK
Track 9
Filename I:\DL\Pilc, Moutin, Hoenig - Threedom (2011) [FLAC]\09 - Giant Steps.wav
Peak level 100.0 %
Extraction speed 6.3 X
Track quality 100.0 %
Test CRC B90FA9B6
Copy CRC B90FA9B6
Track not present in AccurateRip database
Copy OK
Track 10
Filename I:\DL\Pilc, Moutin, Hoenig - Threedom (2011) [FLAC]\10 - Afro Blue.wav
Peak level 70.5 %
Extraction speed 5.3 X
Track quality 99.8 %
Test CRC 720787BC
Copy CRC 720787BC
Track not present in AccurateRip database
Copy OK
Track 11
Filename I:\DL\Pilc, Moutin, Hoenig - Threedom (2011) [FLAC]\11 - The Grinch Dance.wav
Peak level 97.7 %
Extraction speed 6.1 X
Track quality 99.9 %
Test CRC DB816B75
Copy CRC DB816B75
Track not present in AccurateRip database
Copy OK
Track 12
Filename I:\DL\Pilc, Moutin, Hoenig - Threedom (2011) [FLAC]\12 - Dusk.wav
Peak level 65.9 %
Extraction speed 3.9 X
Track quality 99.7 %
Test CRC 2635746B
Copy CRC 2635746B
Track not present in AccurateRip database
Copy OK
Track 13
Filename I:\DL\Pilc, Moutin, Hoenig - Threedom (2011) [FLAC]\13 - Lily.wav
Peak level 93.5 %
Extraction speed 5.3 X
Track quality 99.8 %
Test CRC C34DB631
Copy CRC C34DB631
Track not present in AccurateRip database
Copy OK
Track 14
Filename I:\DL\Pilc, Moutin, Hoenig - Threedom (2011) [FLAC]\14 - Threedom.wav
Peak level 96.6 %
Extraction speed 5.7 X
Track quality 99.9 %
Test CRC B07D182E
Copy CRC B07D182E
Track not present in AccurateRip database
Copy OK
Track 15
Filename I:\DL\Pilc, Moutin, Hoenig - Threedom (2011) [FLAC]\15 - Hymn for Her.wav
Peak level 96.6 %
Extraction speed 6.1 X
Track quality 99.9 %
Test CRC 6A0B243E
Copy CRC 6A0B243E
Track not present in AccurateRip database
Copy OK
Track 16
Filename I:\DL\Pilc, Moutin, Hoenig - Threedom (2011) [FLAC]\16 - I'm Beginning to See the Light.wav
Peak level 98.7 %
Extraction speed 6.6 X
Track quality 99.9 %
Test CRC 3A87D2B2
Copy CRC 3A87D2B2
Track not present in AccurateRip database
Copy OK
Track 17
Filename I:\DL\Pilc, Moutin, Hoenig - Threedom (2011) [FLAC]\17 - Confirmation.wav
Peak level 96.8 %
Extraction speed 7.0 X
Track quality 99.9 %
Test CRC 19BB455A
Copy CRC 19BB455A
Track not present in AccurateRip database
Copy OK
Track 18
Filename I:\DL\Pilc, Moutin, Hoenig - Threedom (2011) [FLAC]\18 - Smile.wav
Peak level 71.2 %
Extraction speed 8.6 X
Track quality 100.0 %
Test CRC DB8FCBF4
Copy CRC DB8FCBF4
Track not present in AccurateRip database
Copy OK
None of the tracks are present in the AccurateRip database
No errors occurred
End of status report
---- CUETools DB Plugin V2.1.3
[CTDB TOCID: BZuoAdriLIyO5.bhpuhM7Qfy9kQ-] disk not present in database, Submit result: database access error: The request was aborted: The request was canceled.
==== Log checksum B2E1147DAFCE629F09D86AC7A7A9CA72167EFD222BC0699A12EB0C6DAB689ED4 ====

 
Содержание индексной карты (.CUE)
REM GENRE Jazz
REM DATE 2011
REM DISCID 2A10E213
REM COMMENT "ExactAudioCopy v1.0b3"
PERFORMER "Pilc, Moutin, Hoenig"
TITLE "Threedom"
FILE "01 - Nardis.wav" WAVE
TRACK 01 AUDIO
TITLE "Nardis"
PERFORMER "Pilc, Moutin, Hoenig"
INDEX 01 00:00:00
FILE "02 - Think of One.wav" WAVE
TRACK 02 AUDIO
TITLE "Think of One"
PERFORMER "Pilc, Moutin, Hoenig"
INDEX 01 00:00:00
FILE "03 - Morning.wav" WAVE
TRACK 03 AUDIO
TITLE "Morning"
PERFORMER "Pilc, Moutin, Hoenig"
INDEX 01 00:00:00
FILE "04 - A Foggy Day.wav" WAVE
TRACK 04 AUDIO
TITLE "A Foggy Day"
PERFORMER "Pilc, Moutin, Hoenig"
INDEX 01 00:00:00
FILE "05 - You and the Night and the Music.wav" WAVE
TRACK 05 AUDIO
TITLE "You and the Night and the Music"
PERFORMER "Pilc, Moutin, Hoenig"
INDEX 01 00:00:00
FILE "06 - Birth.wav" WAVE
TRACK 06 AUDIO
TITLE "Birth"
PERFORMER "Pilc, Moutin, Hoenig"
INDEX 01 00:00:00
FILE "07 - Slow.wav" WAVE
TRACK 07 AUDIO
TITLE "Slow"
PERFORMER "Pilc, Moutin, Hoenig"
INDEX 01 00:00:00
FILE "08 - Touch.wav" WAVE
TRACK 08 AUDIO
TITLE "Touch"
PERFORMER "Pilc, Moutin, Hoenig"
INDEX 01 00:00:00
FILE "09 - Giant Steps.wav" WAVE
TRACK 09 AUDIO
TITLE "Giant Steps"
PERFORMER "Pilc, Moutin, Hoenig"
INDEX 01 00:00:00
FILE "10 - Afro Blue.wav" WAVE
TRACK 10 AUDIO
TITLE "Afro Blue"
PERFORMER "Pilc, Moutin, Hoenig"
INDEX 01 00:00:00
FILE "11 - The Grinch Dance.wav" WAVE
TRACK 11 AUDIO
TITLE "The Grinch Dance"
PERFORMER "Pilc, Moutin, Hoenig"
INDEX 01 00:00:00
FILE "12 - Dusk.wav" WAVE
TRACK 12 AUDIO
TITLE "Dusk"
PERFORMER "Pilc, Moutin, Hoenig"
INDEX 01 00:00:00
FILE "13 - Lily.wav" WAVE
TRACK 13 AUDIO
TITLE "Lily"
PERFORMER "Pilc, Moutin, Hoenig"
INDEX 01 00:00:00
FILE "14 - Threedom.wav" WAVE
TRACK 14 AUDIO
TITLE "Threedom"
PERFORMER "Pilc, Moutin, Hoenig"
INDEX 01 00:00:00
FILE "15 - Hymn for Her.wav" WAVE
TRACK 15 AUDIO
TITLE "Hymn for Her"
PERFORMER "Pilc, Moutin, Hoenig"
INDEX 01 00:00:00
FILE "16 - I'm Beginning to See the Light.wav" WAVE
TRACK 16 AUDIO
TITLE "I'm Beginning to See the Light"
PERFORMER "Pilc, Moutin, Hoenig"
INDEX 01 00:00:00
FILE "17 - Confirmation.wav" WAVE
TRACK 17 AUDIO
TITLE "Confirmation"
PERFORMER "Pilc, Moutin, Hoenig"
INDEX 01 00:00:00
FILE "18 - Smile.wav" WAVE
TRACK 18 AUDIO
TITLE "Smile"
PERFORMER "Pilc, Moutin, Hoenig"
INDEX 01 00:00:00

Any questions - support@pro-jazz.com. Есть вопросы - support@pro-jazz.com
08:57
236
Нет комментариев. Ваш будет первым!