Вы используете незарегистрированную версию компонента "Вкладки"!

Поиск

(Contemporary Jazz, Post-Bop) [CD] Kenny Werner / Johannes Weidenmueller / Ari Hoenig - The Melody - 2015, FLAC (tracks+.cue), lossless

(Contemporary Jazz, Post-Bop) [CD] Kenny Werner / Johannes Weidenmueller / Ari Hoenig - The Melody - 2015, FLAC (tracks+.cue), lossless
Треклист:
Kenny Werner / Johannes Weidenmueller / Ari Hoenig - The Melody
Жанр: Contemporary Jazz, Post-Bop
Носитель: CD
Год издания: 2015
Издатель (лейбл): Pirouet Records
Номер по каталогу: PIT3083
Страна исполнителя (группы): US Brooklyn, New York
Аудиокодек: FLAC (*.flac)
Тип рипа: tracks+.cue
Битрейт аудио: lossless
Продолжительность: 00:56:46
Источник (релизер): sddd
Наличие сканов в содержимом раздачи: нет

Kenny Werner piano
Johannes Weidenmueller bass
Ari Hoenig drums

01. Try To Remember [06:52]
02. Who? [09:06]
03. Balloons [08:32]
04. 26-2 [06:47]
05. Voncify The Emulyans [08:11]
06. In Your Own Sweet Way [08:29]
07. Beauty Secrets [08:47]

 
Лог создания рипа
Exact Audio Copy V1.0 beta 6 from 9. April 2015
EAC extraction logfile from 12. October 2015, 20:13
Kenny Werner / The Melody
Used drive : hp DVDRAM GT50N Adapter: 1 ID: 0
Read mode : Secure
Utilize accurate stream : Yes
Defeat audio cache : Yes
Make use of C2 pointers : No
Read offset correction : 103
Overread into Lead-In and Lead-Out : No
Fill up missing offset samples with silence : Yes
Delete leading and trailing silent blocks : No
Null samples used in CRC calculations : Yes
Used interface : Native Win32 interface for Win NT & 2000
Gap handling : Appended to previous track
Used output format : User Defined Encoder
Selected bitrate : 1024 kBit/s
Quality : High
Add ID3 tag : No
Command line compressor : C:\Program Files (x86)\Exact Audio Copy\Flac\flac.exe
Additional command line options : -8 -V -T "ARTIST=%artist%" -T "TITLE=%title%" -T "ALBUM=%albumtitle%" -T "DATE=%year%" -T "TRACKNUMBER=%tracknr%" -T "GENRE=%genre%" -T "PERFORMER=%albuminterpret%" -T "COMPOSER=%composer%" %haslyrics%--tag-from-file=LYRICS="%lyricsfile%"%haslyrics% -T "ALBUMARTIST=%albumartist%" -T "DISCNUMBER=%cdnumber%" -T "TOTALDISCS=%totalcds%" -T "TOTALTRACKS=%numtracks%" -T "COMMENT=%comment%" %source% -o %dest%
TOC of the extracted CD
Track | Start | Length | Start sector | End sector
---------------------------------------------------------
1 | 0:00.00 | 6:52.51 | 0 | 30950
2 | 6:52.51 | 9:06.02 | 30951 | 71902
3 | 15:58.53 | 8:32.73 | 71903 | 110375
4 | 24:31.51 | 6:47.07 | 110376 | 140907
5 | 31:18.58 | 8:11.17 | 140908 | 177749
6 | 39:30.00 | 8:29.14 | 177750 | 215938
7 | 47:59.14 | 8:47.57 | 215939 | 255520
Track 1
Filename C:\Users\OnE\Desktop\Kenny Werner - The Melody (2015) [FLAC]\01 Try To Remember.wav
Pre-gap length 0:00:02.00
Peak level 83.6 %
Extraction speed 1.2 X
Track quality 99.9 %
Test CRC 0DF3506D
Copy CRC 0DF3506D
Track not present in AccurateRip database
Copy OK
Track 2
Filename C:\Users\OnE\Desktop\Kenny Werner - The Melody (2015) [FLAC]\02 Who.wav
Peak level 97.2 %
Extraction speed 1.7 X
Track quality 100.0 %
Test CRC 7AF6EEFF
Copy CRC 7AF6EEFF
Track not present in AccurateRip database
Copy OK
Track 3
Filename C:\Users\OnE\Desktop\Kenny Werner - The Melody (2015) [FLAC]\03 Balloons.wav
Peak level 96.7 %
Extraction speed 1.9 X
Track quality 100.0 %
Test CRC 7B6D0E23
Copy CRC 7B6D0E23
Track not present in AccurateRip database
Copy OK
Track 4
Filename C:\Users\OnE\Desktop\Kenny Werner - The Melody (2015) [FLAC]\04 26-2.wav
Peak level 97.2 %
Extraction speed 2.1 X
Track quality 100.0 %
Test CRC 04A93162
Copy CRC 04A93162
Track not present in AccurateRip database
Copy OK
Track 5
Filename C:\Users\OnE\Desktop\Kenny Werner - The Melody (2015) [FLAC]\05 Voncify The Emulyans.wav
Peak level 98.0 %
Extraction speed 2.3 X
Track quality 100.0 %
Test CRC 2FECF8F3
Copy CRC 2FECF8F3
Track not present in AccurateRip database
Copy OK
Track 6
Filename C:\Users\OnE\Desktop\Kenny Werner - The Melody (2015) [FLAC]\06 In Your Own Sweet Way.wav
Peak level 92.6 %
Extraction speed 2.5 X
Track quality 100.0 %
Test CRC 0FBD10DF
Copy CRC 0FBD10DF
Track not present in AccurateRip database
Copy OK
Track 7
Filename C:\Users\OnE\Desktop\Kenny Werner - The Melody (2015) [FLAC]\07 Beauty Secrets.wav
Peak level 97.1 %
Extraction speed 2.7 X
Track quality 100.0 %
Test CRC 7E052F00
Copy CRC 7E052F00
Track not present in AccurateRip database
Copy OK
None of the tracks are present in the AccurateRip database
No errors occurred
End of status report
---- CUETools DB Plugin V2.1.6
[CTDB TOCID: r9Q8wSz48oOL2aqBMeD7bENDGSs-] found
Submit result: r9Q8wSz48oOL2aqBMeD7bENDGSs- has been confirmed
Track | CTDB Status
1 | (2/2) Accurately ripped
2 | (2/2) Accurately ripped
3 | (2/2) Accurately ripped
4 | (2/2) Accurately ripped
5 | (2/2) Accurately ripped
6 | (2/2) Accurately ripped
7 | (2/2) Accurately ripped
==== Log checksum 6F0729F0C170AF3F06DEACF432B4305FD0F4D533219F4A4FC2439626BC281744 ====
 
Содержание индексной карты (.CUE)
REM GENRE Jazz
REM DATE 2015
REM DISCID 5B0D4E07
REM COMMENT "ExactAudioCopy v1.0b6"
CATALOG 4260041180833
PERFORMER "Kenny Werner"
TITLE "The Melody"
FILE "01 Try To Remember.wav" WAVE
TRACK 01 AUDIO
TITLE "Try To Remember"
PERFORMER "Kenny Werner"
ISRC DEEN41508301
INDEX 01 00:00:00
FILE "02 Who.wav" WAVE
TRACK 02 AUDIO
TITLE "Who?"
PERFORMER "Kenny Werner"
ISRC DEEN41508302
INDEX 01 00:00:00
FILE "03 Balloons.wav" WAVE
TRACK 03 AUDIO
TITLE "Balloons"
PERFORMER "Kenny Werner"
ISRC DEEN41508303
INDEX 01 00:00:00
FILE "04 26-2.wav" WAVE
TRACK 04 AUDIO
TITLE "26-2"
PERFORMER "Kenny Werner"
ISRC DEEN41508304
INDEX 01 00:00:00
FILE "05 Voncify The Emulyans.wav" WAVE
TRACK 05 AUDIO
TITLE "Voncify The Emulyans"
PERFORMER "Kenny Werner"
ISRC DEEN41508305
INDEX 01 00:00:00
FILE "06 In Your Own Sweet Way.wav" WAVE
TRACK 06 AUDIO
TITLE "In Your Own Sweet Way"
PERFORMER "Kenny Werner"
ISRC DEEN41508306
INDEX 01 00:00:00
FILE "07 Beauty Secrets.wav" WAVE
TRACK 07 AUDIO
TITLE "Beauty Secrets"
PERFORMER "Kenny Werner"
ISRC DEEN41508307
INDEX 01 00:00:00
Any questions -> support@pro-jazz.com. По всем вопросам пишите -> support@pro-jazz.com
02:57
254
Нет комментариев. Ваш будет первым!