Поиск

(Contemporary Jazz, Post-Bop) [CD] Aaron Goldberg - Unfolding - 2001, FLAC (tracks+.cue), lossless

(Contemporary Jazz, Post-Bop) [CD] Aaron Goldberg - Unfolding - 2001, FLAC (tracks+.cue), lossless
Треклист:
Aaron Goldberg - Unfolding
Жанр: Contemporary Jazz, Post-Bop
Носитель: CD
Страна-производитель диска (релиза): США
Год издания: 2001
Издатель (лейбл): J Curve Records
Номер по каталогу: JCR1014
Аудиокодек: FLAC (*.flac)
Тип рипа: tracks+.cue
Битрейт аудио: lossless
Продолжительность: 48:28
Источник (релизер): grumpycat (what)
Наличие сканов в содержимом раздачи: нет
Треклист:
01. Sea Shantey (Goldberg) - 6:47
02. Isabella Meets Wally (Goldberg) - 4:44
03. If and Only If (Goldberg) - 5:09
04. You Are the Sunshine of My Life (Wonder) - 6:36
05. Todd's Dream (Goldberg) - 1:18
06. P.B. & J. (Goldberg) - 6:19
07. MAO's Blues (Goldberg) - 4:14
08. Second Chance (Goldberg) - 5:41
09. Equinox (Coltrane) - 7:40
Состав:
Aaron Goldberg - piano
Reuben Rogers - bass
Eric Harland - drums
Recorded at Sear Sound Studios, New York on February 2-3, 2000.
 
Лог создания рипа
X Lossless Decoder version 20141129 (148.1)
XLD extraction logfile from 2015-01-18 21:08:07 -0500
Aaron Goldberg / Unfolding
Used drive : MATSHITA DVD-R   UJ-8A8 (revision HB14)
Media type : Pressed CD
Ripper mode             : XLD Secure Ripper
Disable audio cache     : OK for the drive with a cache less than 1375KiB
Make use of C2 pointers : NO
Read offset correction  : 102
Max retry count         : 100
Gap status              : Analyzed, Appended (except HTOA)
TOC of the extracted CD
     Track |   Start  |  Length  | Start sector | End sector
    ---------------------------------------------------------
        1  | 00:00:00 | 06:47:10 |         0    |    30534
        2  | 06:47:10 | 04:44:07 |     30535    |    51841
        3  | 11:31:17 | 05:08:73 |     51842    |    75014
        4  | 16:40:15 | 06:35:72 |     75015    |   104711
        5  | 23:16:12 | 01:18:33 |    104712    |   110594
        6  | 24:34:45 | 06:19:32 |    110595    |   139051
        7  | 30:54:02 | 04:14:23 |    139052    |   158124
        8  | 35:08:25 | 05:40:45 |    158125    |   183669
        9  | 40:48:70 | 07:39:57 |    183670    |   218151
AccurateRip Summary
    Disc not found in AccurateRip DB.
All Tracks
    Album gain               : 2.25 dB
    Peak                     : 0.997253
    Statistics
        Read error                           : 0
        Jitter error (maybe fixed)           : 0
        Retry sector count                   : 0
        Damaged sector count                 : 0
Track 01
    Filename : /Users/XLD_rips/Aaron Goldberg - Unfolding (2001) [FLAC]/01-01 Sea Shantey.flac
    Pre-gap length : 00:02:00
    Track gain               : 1.20 dB
    Peak                     : 0.984192
    CRC32 hash (test run)    : 5408EBD5
    CRC32 hash               : 5408EBD5
    CRC32 hash (skip zero)   : CB8B1851
    AccurateRip v1 signature : 45DE7956
    AccurateRip v2 signature : 4D19CC83
        ->Track not present in AccurateRip database.
    Statistics
        Read error                           : 0
        Jitter error (maybe fixed)           : 0
        Retry sector count                   : 0
        Damaged sector count                 : 0
Track 02
    Filename : /Users/XLD_rips/Aaron Goldberg - Unfolding (2001) [FLAC]/01-02 Isabella Meets Wally.flac
    Track gain               : 1.65 dB
    Peak                     : 0.841431
    CRC32 hash (test run)    : 09D76E71
    CRC32 hash               : 09D76E71
    CRC32 hash (skip zero)   : 1A6945C1
    AccurateRip v1 signature : 521328C8
    AccurateRip v2 signature : D2162A09
        ->Track not present in AccurateRip database.
    Statistics
        Read error                           : 0
        Jitter error (maybe fixed)           : 0
        Retry sector count                   : 0
        Damaged sector count                 : 0
Track 03
    Filename : /Users/XLD_rips/Aaron Goldberg - Unfolding (2001) [FLAC]/01-03 If and Only If.flac
    Track gain               : 3.74 dB
    Peak                     : 0.771240
    CRC32 hash (test run)    : 2DBB7B28
    CRC32 hash               : 2DBB7B28
    CRC32 hash (skip zero)   : 7D4CC10D
    AccurateRip v1 signature : 57AD4288
    AccurateRip v2 signature : 9F5405D3
        ->Track not present in AccurateRip database.
    Statistics
        Read error                           : 0
        Jitter error (maybe fixed)           : 0
        Retry sector count                   : 0
        Damaged sector count                 : 0
Track 04
    Filename : /Users/XLD_rips/Aaron Goldberg - Unfolding (2001) [FLAC]/01-04 You Are the Sunshine of My Life.flac
    Track gain               : 1.71 dB
    Peak                     : 0.997253
    CRC32 hash (test run)    : 0C338072
    CRC32 hash               : 0C338072
    CRC32 hash (skip zero)   : 15C706E1
    AccurateRip v1 signature : 7A10E32C
    AccurateRip v2 signature : 02DA9202
        ->Track not present in AccurateRip database.
    Statistics
        Read error                           : 0
        Jitter error (maybe fixed)           : 0
        Retry sector count                   : 0
        Damaged sector count                 : 0
Track 05
    Filename : /Users/XLD_rips/Aaron Goldberg - Unfolding (2001) [FLAC]/01-05 Todd's Dream.flac
    Track gain               : 4.49 dB
    Peak                     : 0.363129
    CRC32 hash (test run)    : 100D72E5
    CRC32 hash               : 100D72E5
    CRC32 hash (skip zero)   : 44E5D897
    AccurateRip v1 signature : 235ACBBA
    AccurateRip v2 signature : F7E29DB5
        ->Track not present in AccurateRip database.
    Statistics
        Read error                           : 0
        Jitter error (maybe fixed)           : 0
        Retry sector count                   : 0
        Damaged sector count                 : 0
Track 06
    Filename : /Users/XLD_rips/Aaron Goldberg - Unfolding (2001) [FLAC]/01-06 P.B. & J..flac
    Track gain               : 2.93 dB
    Peak                     : 0.899689
    CRC32 hash (test run)    : CFAE9BCA
    CRC32 hash               : CFAE9BCA
    CRC32 hash (skip zero)   : 3B3C9205
    AccurateRip v1 signature : 770FE68F
    AccurateRip v2 signature : 1992C19D
        ->Track not present in AccurateRip database.
    Statistics
        Read error                           : 0
        Jitter error (maybe fixed)           : 0
        Retry sector count                   : 0
        Damaged sector count                 : 0
Track 07
    Filename : /Users/XLD_rips/Aaron Goldberg - Unfolding (2001) [FLAC]/01-07 Mao's Blues.flac
    Track gain               : 1.20 dB
    Peak                     : 0.957092
    CRC32 hash (test run)    : 4F123D60
    CRC32 hash               : 4F123D60
    CRC32 hash (skip zero)   : 08F7EEBB
    AccurateRip v1 signature : 1B07A0C6
    AccurateRip v2 signature : F2D6CB43
        ->Track not present in AccurateRip database.
    Statistics
        Read error                           : 0
        Jitter error (maybe fixed)           : 0
        Retry sector count                   : 0
        Damaged sector count                 : 0
Track 08
    Filename : /Users/XLD_rips/Aaron Goldberg - Unfolding (2001) [FLAC]/01-08 Second Chance.flac
    Track gain               : 2.71 dB
    Peak                     : 0.885376
    CRC32 hash (test run)    : 9D571A39
    CRC32 hash               : 9D571A39
    CRC32 hash (skip zero)   : 7543B22B
    AccurateRip v1 signature : 16D12992
    AccurateRip v2 signature : FE3AF027
        ->Track not present in AccurateRip database.
    Statistics
        Read error                           : 0
        Jitter error (maybe fixed)           : 0
        Retry sector count                   : 0
        Damaged sector count                 : 0
Track 09
    Filename : /Users/XLD_rips/Aaron Goldberg - Unfolding (2001) [FLAC]/01-09 Equinox.flac
    Track gain               : 4.10 dB
    Peak                     : 0.983398
    CRC32 hash (test run)    : 7FD224AB
    CRC32 hash               : 7FD224AB
    CRC32 hash (skip zero)   : 4C16C637
    AccurateRip v1 signature : A5C440BC
    AccurateRip v2 signature : 7A48CBBA
        ->Track not present in AccurateRip database.
    Statistics
        Read error                           : 0
        Jitter error (maybe fixed)           : 0
        Retry sector count                   : 0
        Damaged sector count                 : 0
No errors occurred
End of status report
-----BEGIN XLD SIGNATURE-----
um8CLD9UB9XEN3CFbTH0sRTUB2cfpiAVu5rio23AB7zKmSYKE6yN5CAmtKCzd1uaO4JP0GZDHSOGohdj1cXfkgXzmLelYX1_M_ksE_u
-----END XLD SIGNATURE-----
 
 
Содержание индексной карты (.CUE)
TITLE "Unfolding"
PERFORMER "Aaron Goldberg"
REM GENRE "Jazz"
REM DATE "2001"
REM DISCID 6E0B5C09
REM REPLAYGAIN_ALBUM_GAIN 2.25 dB
REM REPLAYGAIN_ALBUM_PEAK 0.997253
FILE "01 - Sea Shantey.flac" WAVE
  TRACK 01 AUDIO
    TITLE "Sea Shantey"
    REM REPLAYGAIN_TRACK_GAIN 1.20 dB
    REM REPLAYGAIN_TRACK_PEAK 0.984192
    INDEX 01 00:00:00
FILE "02 - Isabella Meets Wally.flac" WAVE
  TRACK 02 AUDIO
    TITLE "Isabella Meets Wally"
    REM REPLAYGAIN_TRACK_GAIN 1.65 dB
    REM REPLAYGAIN_TRACK_PEAK 0.841431
    INDEX 01 00:00:00
FILE "03 - If and Only If.flac" WAVE
  TRACK 03 AUDIO
    TITLE "If and Only If"
    REM REPLAYGAIN_TRACK_GAIN 3.74 dB
    REM REPLAYGAIN_TRACK_PEAK 0.771240
    INDEX 01 00:00:00
FILE "04 - You Are the Sunshine of My Life.flac" WAVE
  TRACK 04 AUDIO
    TITLE "You Are the Sunshine of My Life"
    REM REPLAYGAIN_TRACK_GAIN 1.71 dB
    REM REPLAYGAIN_TRACK_PEAK 0.997253
    INDEX 01 00:00:00
FILE "05 - Todd's Dream.flac" WAVE
  TRACK 05 AUDIO
    TITLE "Todd's Dream"
    REM REPLAYGAIN_TRACK_GAIN 4.49 dB
    REM REPLAYGAIN_TRACK_PEAK 0.363129
    INDEX 01 00:00:00
FILE "06 - P.B. & J..flac" WAVE
  TRACK 06 AUDIO
    TITLE "P.B. & J."
    REM REPLAYGAIN_TRACK_GAIN 2.93 dB
    REM REPLAYGAIN_TRACK_PEAK 0.899689
    INDEX 01 00:00:00
FILE "07 - MAO's Blues.flac" WAVE
  TRACK 07 AUDIO
    TITLE "MAO's Blues"
    REM REPLAYGAIN_TRACK_GAIN 1.20 dB
    REM REPLAYGAIN_TRACK_PEAK 0.957092
    INDEX 01 00:00:00
FILE "08 - Second Chance.flac" WAVE
  TRACK 08 AUDIO
    TITLE "Second Chance"
    REM REPLAYGAIN_TRACK_GAIN 2.71 dB
    REM REPLAYGAIN_TRACK_PEAK 0.885376
    INDEX 01 00:00:00
FILE "09 - Equinox.flac" WAVE
  TRACK 09 AUDIO
    TITLE "Equinox"
    REM REPLAYGAIN_TRACK_GAIN 4.10 dB
    REM REPLAYGAIN_TRACK_PEAK 0.983398
    INDEX 01 00:00:00
 
 
Review by David R. Adler
While riding high as a member of Joshua Redman's quartet, pianist Aaron Goldberg released his sophomore effort, a trio date featuring Reuben Rogers on bass and Eric Harland on drums. Over the course of seven originals and two covers, Goldberg stays within the post-bop mainstream but displays an emotional and technical range that is well worth repeated listens. He emphasizes the versatility of the blues form on "Isabella Meets Wally," "MAO's Blues," and an intriguingly mellow version of John Coltrane's "Equinox." He also offers a not-at-all-banal reworking of Stevie Wonder's "You Are the Sunshine of My Life" and is at his pensive best on "Todd's Dream," a solo interlude that segues directly into the reflective "P.B.&J." All the while his rhythm section exhibits a great deal of dynamic control, which includes riotous incitement when it's called for. Smart, fiery, and swinging.
21:15
563
Нет комментариев. Ваш будет первым!