Поиск

(Contemporary Jazz, Post-Bop) Aaron Goldberg, Omer Avital, Ali Jackson - Yes! - 2012, FLAC (tracks+.cue), lossless

(Contemporary Jazz, Post-Bop) Aaron Goldberg, Omer Avital, Ali Jackson - Yes! - 2012, FLAC (tracks+.cue), lossless
Треклист:
Aaron Goldberg, Omer Avital, Ali Jackson / Yes!
Жанр: Contemporary Jazz, Post-Bop
Страна-производитель диска: USA
Год издания: 2012
Издатель (лейбл): Sunnyside
Номер по каталогу: SSC1271
Страна: Israel, USA
Аудиокодек: FLAC (*.flac)
Тип рипа: tracks+.cue
Битрейт аудио: lossless
Продолжительность: 01:04:48
Источник (релизер): what.cd
Наличие сканов в содержимом раздачи: да
Треклист:
1. Maraba Blue
2. Yes!
3. Aziel Dance
4. Epistrophy
5. El Soul
6. Way Way Back
7. Homeland
8. The Shepherd
9. Manic Depressive
 
Лог создания рипа
Exact Audio Copy V1.0 beta 3 from 29. August 2011
EAC extraction logfile from 8. March 2012, 16:34
Aaron Goldberg / Yes!
Used drive  : PHILIPS SPD3400CC   Adapter: 3  ID: 0
Read mode               : Secure
Utilize accurate stream : Yes
Defeat audio cache      : Yes
Make use of C2 pointers : No
Read offset correction                      : 6
Overread into Lead-In and Lead-Out          : No
Fill up missing offset samples with silence : Yes
Delete leading and trailing silent blocks   : No
Null samples used in CRC calculations       : Yes
Used interface                              : Installed external ASPI interface
Gap handling                                : Appended to previous track
Used output format              : User Defined Encoder
Selected bitrate                : 1024 kBit/s
Quality                         : High
Add ID3 tag                     : No
Command line compressor         : C:\Program Files (x86)\Exact Audio Copy\FLAC\FLAC.EXE
Additional command line options : -8 -V -T "ARTIST=%artist%" -T "TITLE=%title%" -T "ALBUM=%albumtitle%" -T "DATE=%year%" -T "TRACKNUMBER=%tracknr%" -T "TOTALTRACKS=%numtracks%" -T "GENRE=%genre%" -T "ALBUM ARTIST=%albumartist%" -T "ALBUMARTIST=%albumartist%" -T "COMMENT=EAC V1.0 beta 3, Secure Mode, Test & Copy, AccurateRip, FLAC -8" %source%
TOC of the extracted CD
     Track |   Start  |  Length  | Start sector | End sector
    ---------------------------------------------------------
        1  |  0:00.00 |  5:58.30 |         0    |    26879
        2  |  5:58.30 |  9:20.56 |     26880    |    68935
        3  | 15:19.11 |  4:11.33 |     68936    |    87793
        4  | 19:30.44 |  9:30.03 |     87794    |   130546
        5  | 29:00.47 |  7:11.02 |    130547    |   162873
        6  | 36:11.49 |  6:15.28 |    162874    |   191026
        7  | 42:27.02 |  7:13.69 |    191027    |   223570
        8  | 49:40.71 | 10:32.71 |    223571    |   271041
        9  | 60:13.67 |  4:38.08 |    271042    |   291899
Track  1
     Filename C:\Rips\01 Maraba Blue.wav
     Pre-gap length  0:00:02.00
     Peak level 98.8 %
     Extraction speed 1.2 X
     Track quality 99.8 %
     Test CRC 59ED2972
     Copy CRC 59ED2972
     Track not present in AccurateRip database
     Copy OK
Track  2
     Filename C:\Rips\02 Yes!.wav
     Pre-gap length  0:00:01.35
     Peak level 98.8 %
     Extraction speed 2.2 X
     Track quality 99.9 %
     Test CRC DDF8830B
     Copy CRC DDF8830B
     Track not present in AccurateRip database
     Copy OK
Track  3
     Filename C:\Rips\03 Aziel Dance.wav
     Pre-gap length  0:00:02.35
     Peak level 98.8 %
     Extraction speed 2.5 X
     Track quality 100.0 %
     Test CRC DEC10CBF
     Copy CRC DEC10CBF
     Track not present in AccurateRip database
     Copy OK
Track  4
     Filename C:\Rips\04 Epistrophy.wav
     Pre-gap length  0:00:02.30
     Peak level 98.8 %
     Extraction speed 2.6 X
     Track quality 99.9 %
     Test CRC B9131D47
     Copy CRC B9131D47
     Track not present in AccurateRip database
     Copy OK
Track  5
     Filename C:\Rips\05 El Soul.wav
     Pre-gap length  0:00:01.55
     Peak level 98.8 %
     Extraction speed 3.1 X
     Track quality 100.0 %
     Test CRC 16EAC538
     Copy CRC 16EAC538
     Track not present in AccurateRip database
     Copy OK
Track  6
     Filename C:\Rips\06 Way Way Back.wav
     Pre-gap length  0:00:01.55
     Peak level 98.8 %
     Extraction speed 3.3 X
     Track quality 100.0 %
     Test CRC 4B91F3A2
     Copy CRC 4B91F3A2
     Track not present in AccurateRip database
     Copy OK
Track  7
     Filename C:\Rips\07 Homeland.wav
     Pre-gap length  0:00:02.20
     Peak level 98.8 %
     Extraction speed 3.0 X
     Track quality 99.9 %
     Test CRC 423E9652
     Copy CRC 423E9652
     Track not present in AccurateRip database
     Copy OK
Track  8
     Filename C:\Rips\08 The Shepherd.wav
     Pre-gap length  0:00:02.55
     Peak level 98.8 %
     Extraction speed 3.9 X
     Track quality 100.0 %
     Test CRC 59C34047
     Copy CRC 59C34047
     Track not present in AccurateRip database
     Copy OK
Track  9
     Filename C:\Rips\09 Manic Depressive.wav
     Pre-gap length  0:00:01.30
     Peak level 98.8 %
     Extraction speed 3.8 X
     Track quality 100.0 %
     Test CRC EB36005B
     Copy CRC EB36005B
     Track not present in AccurateRip database
     Copy OK
None of the tracks are present in the AccurateRip database
No errors occurred
End of status report
==== Log checksum 9D6E88FC9FB0C5E8F6FA73B1CACD55C7AF1F462F638FE8F6F0717445D1189A7E ====
 
 
Содержание индексной карты (.CUE)
REM GENRE Jazz
REM DATE 2012
REM DISCID 750F3409
REM COMMENT "ExactAudioCopy v1.0b3"
PERFORMER "Aaron Goldberg"
TITLE "Yes!"
FILE "01 Maraba Blue.wav" WAVE
  TRACK 01 AUDIO
    TITLE "Maraba Blue"
    PERFORMER "Aaron Goldberg"
    INDEX 01 00:00:00
  TRACK 02 AUDIO
    TITLE "Yes!"
    PERFORMER "Aaron Goldberg"
    INDEX 00 05:56:70
FILE "02 Yes!.wav" WAVE
    INDEX 01 00:00:00
  TRACK 03 AUDIO
    TITLE "Aziel Dance"
    PERFORMER "Aaron Goldberg"
    INDEX 00 09:18:21
FILE "03 Aziel Dance.wav" WAVE
    INDEX 01 00:00:00
  TRACK 04 AUDIO
    TITLE "Epistrophy"
    PERFORMER "Aaron Goldberg"
    INDEX 00 04:09:03
FILE "04 Epistrophy.wav" WAVE
    INDEX 01 00:00:00
  TRACK 05 AUDIO
    TITLE "El Soul"
    PERFORMER "Aaron Goldberg"
    INDEX 00 09:28:23
FILE "05 El Soul.wav" WAVE
    INDEX 01 00:00:00
  TRACK 06 AUDIO
    TITLE "Way Way Back"
    PERFORMER "Aaron Goldberg"
    INDEX 00 07:09:22
FILE "06 Way Way Back.wav" WAVE
    INDEX 01 00:00:00
  TRACK 07 AUDIO
    TITLE "Homeland"
    PERFORMER "Aaron Goldberg"
    INDEX 00 06:13:08
FILE "07 Homeland.wav" WAVE
    INDEX 01 00:00:00
  TRACK 08 AUDIO
    TITLE "The Shepherd"
    PERFORMER "Aaron Goldberg"
    INDEX 00 07:11:14
FILE "08 The Shepherd.wav" WAVE
    INDEX 01 00:00:00
  TRACK 09 AUDIO
    TITLE "Manic Depressive"
    PERFORMER "Aaron Goldberg"
    INDEX 00 10:31:41
FILE "09 Manic Depressive.wav" WAVE
    INDEX 01 00:00:00
 
 
Состав
Aaron Goldberg - piano
Omer Avital - acoustic bass
Ali Jackson Jr. - drums
По всем вопросам пишите личное сообщение пользователю M0p94ok.
01:30
429
Нет комментариев. Ваш будет первым!