Вы используете незарегистрированную версию компонента "Вкладки"!

Поиск

(Contemporary Jazz, Plainisphare) Aujourd'hui Madame (Christophe Berthet, Philippe Ehinger, Christian Graf, Philippe Koller, Yves Massy, Jean-Luc Riesen, Bernard Trontin) - Aujourd'hui Madame - 1991, FLAC (tracks+.cue), lossless

(Contemporary Jazz, Plainisphare) Aujourd'hui Madame (Christophe Berthet, Philippe Ehinger, Christian Graf, Philippe Koller, Yves Massy, Jean-Luc Riesen, Bernard Trontin) - Aujourd'hui Madame - 1991, FLAC (tracks+.cue), lossless
Треклист:
Aujourd'hui Madame / Aujourd'hui Madame
Жанр: Contemporary Jazz, Plainisphare
Страна-производитель диска: Switzerland
Год издания: 1991
Издатель (лейбл): Plainisphare
Номер по каталогу: PL 1267 – 63 CD
Аудиокодек: FLAC (*.flac)
Тип рипа: tracks+.cue
Битрейт аудио: lossless
Продолжительность: 49:05
Источник (релизер): Max Monteiro
Наличие сканов в содержимом раздачи: нет
Треклист:
1. Moonraker (Bernard Trontin) 7:42
2. Blow It (Yves Massy) 4:44
3. Clockwise (Yves Massy) 1:38
4. Sargasses (Aujourd’hui Madame) 3:23
5. Libations au Kreün Köhrmahnn (Philippe Koller / Bernard Trontin) 6:42
6. (En)voyez plutôt ! (Aujourd’hui Madame) 3:45
7. En Soleure coulent le Gange & l’Amazone (Philippe Koller) 10:23
8. Popaïne & Vieux Tableaux (Christian Graf) 7:50
9. You Kon’t Know What Love Is (Raye/ DePaul) 2:59
Enregistré au Studio Ear Force à Fribourg en novembre 1990.
Christophe Berthet – saxophones soprano & baryton
Philippe Ehinger – clarinettes & claviers
Christian Graf – guitare
Philippe Koller – violon
Yves Massy – trombone
Jean-Luc Riesen – basse
Bernard Trontin – batterie & percussions
 
Лог создания рипа
Exact Audio Copy V1.0 beta 3 from 29. August 2011
EAC extraction logfile from 1. October 2013, 14:41
Aujourd'hui Madame / Aujourd'hui Madame
Used drive : SlimtypeeNAU508 5 Adapter: 1 ID: 0
Read mode : Secure
Utilize accurate stream : Yes
Defeat audio cache : Yes
Make use of C2 pointers : No
Read offset correction : 6
Overread into Lead-In and Lead-Out : No
Fill up missing offset samples with silence : Yes
Delete leading and trailing silent blocks : No
Null samples used in CRC calculations : Yes
Used interface : Native Win32 interface for Win NT & 2000
Gap handling : Appended to previous track
Used output format : User Defined Encoder
Selected bitrate : 768 kBit/s
Quality : High
Add ID3 tag : No
Command line compressor : C:\Program Files (x86)\Exact Audio Copy\Flac\flac.exe
Additional command line options : -8 -V -T "ARTIST=%artist%" -T "TITLE=%title%" -T "ALBUM=%albumtitle%" -T "DATE=%year%" -T "TRACKNUMBER=%tracknr%" -T "GENRE=%genre%" -T "PERFORMER=%albuminterpret%" -T "COMPOSER=%composer%" %haslyrics%--tag-from-file=LYRICS="%lyricsfile%"%haslyrics% -T "ALBUMARTIST=%albumartist%" -T "DISCNUMBER=%cdnumber%" -T "TOTALDISCS=%totalcds%" -T "TOTALTRACKS=%numtracks%" -T "COMMENT=%comment%" %source% -o %dest%
TOC of the extracted CD
Track | Start | Length | Start sector | End sector
---------------------------------------------------------
1 | 0:00.33 | 7:41.62 | 33 | 34669
2 | 7:42.20 | 4:43.48 | 34670 | 55942
3 | 12:25.68 | 1:37.45 | 55943 | 63262
4 | 14:03.38 | 3:22.45 | 63263 | 78457
5 | 17:26.08 | 6:42.37 | 78458 | 108644
6 | 24:08.45 | 3:44.40 | 108645 | 125484
7 | 27:53.10 | 10:22.73 | 125485 | 172207
8 | 38:16.08 | 7:50.07 | 172208 | 207464
9 | 46:06.15 | 2:59.30 | 207465 | 220919
Track 1
Filename C:\EAC rips\01 - Moonraker.wav
Pre-gap length 0:00:02.33
Peak level 94.0 %
Extraction speed 1.1 X
Track quality 99.9 %
Test CRC 3F607647
Copy CRC 3F607647
Track not present in AccurateRip database
Copy OK
Track 2
Filename C:\EAC rips\02 - Blow It.wav
Peak level 91.5 %
Extraction speed 1.1 X
Track quality 99.9 %
Test CRC DA793D9C
Copy CRC DA793D9C
Track not present in AccurateRip database
Copy OK
Track 3
Filename C:\EAC rips\03 - Clockwise.wav
Peak level 83.4 %
Extraction speed 0.9 X
Track quality 99.8 %
Test CRC D9D842C8
Copy CRC D9D842C8
Track not present in AccurateRip database
Copy OK
Track 4
Filename C:\EAC rips\04 - Sargasses.wav
Peak level 89.7 %
Extraction speed 1.4 X
Track quality 100.0 %
Test CRC 2942FEA1
Copy CRC 2942FEA1
Track not present in AccurateRip database
Copy OK
Track 5
Filename C:\EAC rips\05 - Libations au Kreün Köhrmahnn.wav
Peak level 85.5 %
Extraction speed 1.6 X
Track quality 100.0 %
Test CRC 37B2F31C
Copy CRC 37B2F31C
Track not present in AccurateRip database
Copy OK
Track 6
Filename C:\EAC rips\06 - (En)voyez plutôt !.wav
Peak level 99.4 %
Extraction speed 1.6 X
Track quality 100.0 %
Test CRC 0D9ACAC1
Copy CRC 0D9ACAC1
Track not present in AccurateRip database
Copy OK
Track 7
Filename C:\EAC rips\07 - En Soleure coulent le Gange & l'Amazone.wav
Pre-gap length 0:00:01.00
Peak level 100.0 %
Extraction speed 1.8 X
Track quality 99.9 %
Test CRC 66C9CA4F
Copy CRC 66C9CA4F
Track not present in AccurateRip database
Copy OK
Track 8
Filename C:\EAC rips\08 - Popaïne & Vieux Tableaux.wav
Peak level 100.0 %
Extraction speed 1.9 X
Track quality 99.9 %
Test CRC B016727F
Copy CRC B016727F
Track not present in AccurateRip database
Copy OK
Track 9
Filename C:\EAC rips\09 - You Don't Know What Love Is.wav
Pre-gap length 0:00:02.00
Peak level 40.0 %
Extraction speed 1.9 X
Track quality 100.0 %
Test CRC 3F026772
Copy CRC 3F026772
Track not present in AccurateRip database
Copy OK
None of the tracks are present in the AccurateRip database
No errors occurred
End of status report
---- CUETools DB Plugin V2.1.4
[CTDB TOCID: NdyZnVQH0XLJSsPCEjtv35Yp_0Y-] disk not present in database
Submit result: NdyZnVQH0XLJSsPCEjtv35Yp_0Y- has been uploaded
==== Log checksum 1DD6ECD3AABACBAA85B0AC6331D5B8C97F1815CE5FE5AA5DD86001A994A733EF ====
 
Содержание индексной карты (.CUE)
REM GENRE Jazz
REM DATE 1991
REM DISCID 890B8109
REM COMMENT "ExactAudioCopy v1.0b3"
PERFORMER "Aujourd'hui Madame"
TITLE "Aujourd'hui Madame"
FILE "01 - Moonraker.wav" WAVE
TRACK 01 AUDIO
TITLE "Moonraker"
PERFORMER "Aujourd'hui Madame"
PREGAP 00:00:33
INDEX 01 00:00:00
FILE "02 - Blow It.wav" WAVE
TRACK 02 AUDIO
TITLE "Blow It"
PERFORMER "Aujourd'hui Madame"
INDEX 01 00:00:00
FILE "03 - Clockwise.wav" WAVE
TRACK 03 AUDIO
TITLE "Clockwise"
PERFORMER "Aujourd'hui Madame"
INDEX 01 00:00:00
FILE "04 - Sargasses.wav" WAVE
TRACK 04 AUDIO
TITLE "Sargasses"
PERFORMER "Aujourd'hui Madame"
INDEX 01 00:00:00
FILE "05 - Libations au Kreün Köhrmahnn.wav" WAVE
TRACK 05 AUDIO
TITLE "Libations au Kreün Köhrmahnn"
PERFORMER "Aujourd'hui Madame"
INDEX 01 00:00:00
FILE "06 - (En)voyez plutôt !.wav" WAVE
TRACK 06 AUDIO
TITLE "(En)voyez plutôt !"
PERFORMER "Aujourd'hui Madame"
INDEX 01 00:00:00
TRACK 07 AUDIO
TITLE "En Soleure coulent le Gange & l'Amazone"
PERFORMER "Aujourd'hui Madame"
INDEX 00 03:43:40
FILE "07 - En Soleure coulent le Gange & l'Amazone.wav" WAVE
INDEX 01 00:00:00
FILE "08 - Popaïne & Vieux Tableaux.wav" WAVE
TRACK 08 AUDIO
TITLE "Popaïne & Vieux Tableaux"
PERFORMER "Aujourd'hui Madame"
INDEX 01 00:00:00
TRACK 09 AUDIO
TITLE "You Don't Know What Love Is"
PERFORMER "Aujourd'hui Madame"
INDEX 00 07:48:07
FILE "09 - You Don't Know What Love Is.wav" WAVE
INDEX 01 00:00:00
По всем вопросам пишите личное сообщение пользователю M0p94ok.
19:05
218
Нет комментариев. Ваш будет первым!