Поиск

(Contemporary Jazz, Piano Jazz, Vocal, Cool) Baptiste Trotignon - Song Song Song - 2012, WavPack (image+.cue), lossless

(Contemporary Jazz, Piano Jazz, Vocal, Cool) Baptiste Trotignon - Song Song Song - 2012, WavPack (image+.cue), lossless
Треклист:
♦ Baptiste Trotignon - Song Song Song ♦
Жанр: Contemporary Jazz, Piano Jazz, Vocal, Cool
Год издания: 2012
Издатель (лейбл): Naïve
Номер по каталогу: NJ622411
Аудиокодек: WavPack (*.wv)
Тип рипа: image+.cue
Битрейт аудио: lossless
Продолжительность: 00:45:53
Источник (релизер): scalamus
Наличие сканов в содержимом раздачи: нет
Треклист:
01. La Repetition [02:41]
02. Awake [06:11]
03. Mon Fantome [04:21]
04. Ne Me Quitte Pas/La Javanaise [04:44]
05. Palavas-Les-Flots [03:29]
06. Gone [05:25]
07. Choro Da Cigarra [03:47]
08. Ma Plus Belle Histoire D'Amour [04:11]
09. End Of The Gig [04:37]
10. Une Petite Fille [03:08]
11. Du Bist Die Ruh [03:15]
 
Лог создания рипа
Exact Audio Copy V1.0 beta 3 from 29. August 2011
EAC extraction logfile from 16. April 2013, 18:57
Baptiste Trotignon / Song Song Song
Used drive : HL-DT-STDVDRAM GSA-4165B Adapter: 0 ID: 0
Read mode : Secure
Utilize accurate stream : Yes
Defeat audio cache : Yes
Make use of C2 pointers : No
Read offset correction : 667
Overread into Lead-In and Lead-Out : Yes
Fill up missing offset samples with silence : Yes
Delete leading and trailing silent blocks : No
Null samples used in CRC calculations : Yes
Used interface : Native Win32 interface for Win NT & 2000
Used output format : Internal WAV Routines
Sample format : 44.100 Hz; 16 Bit; Stereo
TOC of the extracted CD
Track | Start | Length | Start sector | End sector
---------------------------------------------------------
1 | 0:00.00 | 2:41.54 | 0 | 12128
2 | 2:41.54 | 6:11.73 | 12129 | 40026
3 | 8:53.52 | 4:21.07 | 40027 | 59608
4 | 13:14.59 | 4:44.42 | 59609 | 80950
5 | 17:59.26 | 3:29.39 | 80951 | 96664
6 | 21:28.65 | 5:25.00 | 96665 | 121039
7 | 26:53.65 | 3:47.05 | 121040 | 138069
8 | 30:40.70 | 4:11.06 | 138070 | 156900
9 | 34:52.01 | 4:37.69 | 156901 | 177744
10 | 39:29.70 | 3:08.10 | 177745 | 191854
11 | 42:38.05 | 3:15.60 | 191855 | 206539
Range status and errors
Selected range
Filename C:\Baptiste Trotignon - Song Song Song.wav
Peak level 100.0 %
Extraction speed 4.8 X
Range quality 99.9 %
Copy CRC B1D7CA41
Copy OK
No errors occurred
 
Содержание индексной карты (.CUE)
REM GENRE Jazz
REM DATE 2012
REM DISCID 8A0AC10B
REM COMMENT "ExactAudioCopy v1.0b3"
PERFORMER "Baptiste Trotignon"
TITLE "Song Song Song"
FILE "Baptiste Trotignon - Song Song Song.wv" WAVE
TRACK 01 AUDIO
TITLE "La Repetition"
PERFORMER "Baptiste Trotignon"
ISRC FRZ130970310
INDEX 01 00:00:00
TRACK 02 AUDIO
TITLE "Awake"
PERFORMER "Baptiste Trotignon"
ISRC FRZ130970311
INDEX 01 02:41:54
TRACK 03 AUDIO
TITLE "Mon Fantome"
PERFORMER "Baptiste Trotignon"
ISRC FRZ130970312
INDEX 00 08:52:05
INDEX 01 08:53:52
TRACK 04 AUDIO
TITLE "Ne Me Quitte Pas/La Javanaise"
PERFORMER "Baptiste Trotignon"
ISRC FRZ130970313
INDEX 00 13:13:33
INDEX 01 13:14:59
TRACK 05 AUDIO
TITLE "Palavas-Les-Flots"
PERFORMER "Baptiste Trotignon"
ISRC FRZ130970314
INDEX 00 17:58:08
INDEX 01 17:59:26
TRACK 06 AUDIO
TITLE "Gone"
PERFORMER "Baptiste Trotignon"
ISRC FRZ130970315
INDEX 01 21:28:65
TRACK 07 AUDIO
TITLE "Choro Da Cigarra"
PERFORMER "Baptiste Trotignon"
ISRC FRZ130970316
INDEX 01 26:53:65
TRACK 08 AUDIO
TITLE "Ma Plus Belle Histoire D'Amour"
PERFORMER "Baptiste Trotignon"
ISRC FRZ130970317
INDEX 00 30:37:66
INDEX 01 30:40:70
TRACK 09 AUDIO
TITLE "End Of The Gig"
PERFORMER "Baptiste Trotignon"
ISRC FRZ130970318
INDEX 00 34:49:64
INDEX 01 34:52:01
TRACK 10 AUDIO
TITLE "Une Petite Fille"
PERFORMER "Baptiste Trotignon"
ISRC FRZ130970319
INDEX 01 39:29:70
TRACK 11 AUDIO
TITLE "Du Bist Die Ruh"
PERFORMER "Baptiste Trotignon"
ISRC FRZ130970320
INDEX 00 42:33:04
INDEX 01 42:38:05
 
Состав
Personnel:Baptiste Trotignon (piano)
Jeanne Added (vocals - 2, 9, 11)
Melody Gardot (vocals - 3)
Christophe Miossec (vocals - 5)
Mônica Passos (vocals - 6, 7)
Minino Garay (percussion, body rhythm, cajon - 1, 7, 10)
Also featuring:
Jean-Baptiste Laya (guitar - 3)
Thomas Bramerie (bass - 2, 3, 6, 9)
Dré Pallemaerts (drums - 2, 6, 9)
Jean-Charles Ronciero (viola - 2, 6)
Florence Roussin, Lionel Turchi (violins - 2, 6)
Miwa Rosso (cello - 2, 6)
Download available for power users only.
05:29
387
Нет комментариев. Ваш будет первым!