Поиск

(Contemporary Jazz, Piano Jazz) Manuel Rocheman - The Touch of Your Lips: Tribute to Bill Evans - 2010, FLAC (tracks+.cue), lossless

(Contemporary Jazz, Piano Jazz) Manuel Rocheman - The Touch of Your Lips: Tribute to Bill Evans - 2010, FLAC (tracks+.cue), lossless
Треклист:
Manuel Rocheman - The Touch of Your Lips: Tribute to Bill Evans
Жанр: Contemporary Jazz, Piano Jazz
Страна-производитель диска: France
Год издания диска: 2010
Издатель (лейбл): Naive Records
Номер по каталогу: NJ 620911
Страна: Paris France
Аудиокодек: FLAC (*.flac)
Тип рипа: tracks+.cue
Битрейт аудио: lossless
Продолжительность: 00:45:29
Источник (релизер): сеть
Наличие сканов в содержимом раздачи: да
01. M.A.S.H. [06:30]
02. Send in the clowns [05:25]
03. We will meet again [05:28]
04. Daniel's Waltz [05:13]
05. For Sandra [04:22]
06. Only Child [03:50]
07. Rhythm Changes [03:07]
08. The touch of your lips [04:55]
09. La Valse des Chipirons [03:32]
10. Liebesleid [03:02]
 
Лог создания рипа
Exact Audio Copy V1.0 beta 1 from 15. November 2010
EAC extraction logfile from 7. May 2011, 16:16
Manuel Rocheman / The touch of your lips
Used drive : PLEXTOR DVDR PX-860A Adapter: 0 ID: 0
Read mode : Secure
Utilize accurate stream : Yes
Defeat audio cache : Yes
Make use of C2 pointers : No
Read offset correction : 96
Overread into Lead-In and Lead-Out : No
Fill up missing offset samples with silence : Yes
Delete leading and trailing silent blocks : No
Null samples used in CRC calculations : Yes
Used interface : Native Win32 interface for Win NT & 2000
Gap handling : Appended to previous track
Used output format : User Defined Encoder
Selected bitrate : 1024 kBit/s
Quality : High
Add ID3 tag : No
Command line compressor : C:\Program Files\Exact Audio Copy\flac.exe
Additional command line options : -8 -V -T "ARTIST=%a" -T "TITLE=%t" -T "ALBUM=%g" -T "DATE=%y" -T "TRACKNUMBER=%n" -T "TOTALTRACKS=%x" -T "GENRE=%m" -T "ALBUM ARTIST=%v" -T "ALBUMARTIST=%v" -T "COMMENT=EAC V1.0 beta 1, Secure Mode, Test & Copy, AccurateRip
TOC of the extracted CD
Track | Start | Length | Start sector | End sector
---------------------------------------------------------
1 | 0:00.00 | 6:31.52 | 0 | 29376
2 | 6:31.52 | 5:27.02 | 29377 | 53903
3 | 11:58.54 | 5:28.54 | 53904 | 78557
4 | 17:27.33 | 5:15.41 | 78558 | 102223
5 | 22:42.74 | 4:24.08 | 102224 | 122031
6 | 27:07.07 | 3:52.13 | 122032 | 139444
7 | 30:59.20 | 3:09.19 | 139445 | 153638
8 | 34:08.39 | 4:56.51 | 153639 | 175889
9 | 39:05.15 | 3:33.62 | 175890 | 191926
10 | 42:39.02 | 3:02.51 | 191927 | 205627
Track 1
Filename S:\DL\Manuel Rocheman - The touch of your lips (2010) [FLAC]\01 - M.A.S.H..wav
Pre-gap length 0:00:02.00
Peak level 100.0 %
Extraction speed 4.6 X
Track quality 100.0 %
Test CRC 30A05EFD
Copy CRC 30A05EFD
Track not present in AccurateRip database
Copy OK
Track 2
Filename S:\DL\Manuel Rocheman - The touch of your lips (2010) [FLAC]\02 - Send in the clowns.wav
Pre-gap length 0:00:01.10
Peak level 94.4 %
Extraction speed 5.2 X
Track quality 100.0 %
Test CRC 35E6FDAB
Copy CRC 35E6FDAB
Track not present in AccurateRip database
Copy OK
Track 3
Filename S:\DL\Manuel Rocheman - The touch of your lips (2010) [FLAC]\03 - We will meet again.wav
Pre-gap length 0:00:01.67
Peak level 100.0 %
Extraction speed 5.3 X
Track quality 99.9 %
Test CRC 359C96DC
Copy CRC 359C96DC
Track not present in AccurateRip database
Copy OK
Track 4
Filename S:\DL\Manuel Rocheman - The touch of your lips (2010) [FLAC]\04 - Daniel's Waltz.wav
Peak level 100.0 %
Extraction speed 6.2 X
Track quality 100.0 %
Test CRC E9DDB266
Copy CRC E9DDB266
Track not present in AccurateRip database
Copy OK
Track 5
Filename S:\DL\Manuel Rocheman - The touch of your lips (2010) [FLAC]\05 - For Sandra.wav
Pre-gap length 0:00:01.73
Peak level 100.0 %
Extraction speed 6.5 X
Track quality 100.0 %
Test CRC A02B8797
Copy CRC A02B8797
Track not present in AccurateRip database
Copy OK
Track 6
Filename S:\DL\Manuel Rocheman - The touch of your lips (2010) [FLAC]\06 - Only Child.wav
Pre-gap length 0:00:01.09
Peak level 100.0 %
Extraction speed 6.6 X
Track quality 100.0 %
Test CRC 2B20D021
Copy CRC 2B20D021
Track not present in AccurateRip database
Copy OK
Track 7
Filename S:\DL\Manuel Rocheman - The touch of your lips (2010) [FLAC]\07 - Rhythm Changes.wav
Pre-gap length 0:00:01.65
Peak level 100.0 %
Extraction speed 5.0 X
Track quality 99.9 %
Test CRC 04879FDA
Copy CRC 04879FDA
Track not present in AccurateRip database
Copy OK
Track 8
Filename S:\DL\Manuel Rocheman - The touch of your lips (2010) [FLAC]\08 - The touch of your lips.wav
Pre-gap length 0:00:01.47
Peak level 100.0 %
Extraction speed 7.4 X
Track quality 100.0 %
Test CRC CED427D8
Copy CRC CED427D8
Track not present in AccurateRip database
Copy OK
Track 9
Filename S:\DL\Manuel Rocheman - The touch of your lips (2010) [FLAC]\09 - La Valse des Chipirons.wav
Pre-gap length 0:00:01.24
Peak level 100.0 %
Extraction speed 6.3 X
Track quality 99.9 %
Test CRC 5FA5B036
Copy CRC 5FA5B036
Track not present in AccurateRip database
Copy OK
Track 10
Filename S:\DL\Manuel Rocheman - The touch of your lips (2010) [FLAC]\10 - Liebesleid.wav
Pre-gap length 0:00:01.27
Peak level 100.0 %
Extraction speed 7.2 X
Track quality 100.0 %
Test CRC 1C7AFA8C
Copy CRC 1C7AFA8C
Track not present in AccurateRip database
Copy OK
None of the tracks are present in the AccurateRip database
No errors occurred
End of status report
==== Log checksum 10EC498EB8E2077E8C13A4E14C2525DD6250D9388B2DC5C283D9D452163673F6 ====
 
Содержание индексной карты (.CUE)
REM GENRE Jazz
REM DATE 2010
REM DISCID 7D0AB50A
REM COMMENT "ExactAudioCopy v1.0b1"
PERFORMER "Manuel Rocheman"
TITLE "The touch of your lips"
FILE "01 - M.A.S.H..wav" WAVE
TRACK 01 AUDIO
TITLE "M.A.S.H."
PERFORMER "Manuel Rocheman"
INDEX 01 00:00:00
TRACK 02 AUDIO
TITLE "Send in the clowns"
PERFORMER "Manuel Rocheman"
INDEX 00 06:30:42
FILE "02 - Send in the clowns.wav" WAVE
INDEX 01 00:00:00
TRACK 03 AUDIO
TITLE "We will meet again"
PERFORMER "Manuel Rocheman"
INDEX 00 05:25:10
FILE "03 - We will meet again.wav" WAVE
INDEX 01 00:00:00
FILE "04 - Daniel's Waltz.wav" WAVE
TRACK 04 AUDIO
TITLE "Daniel's Waltz"
PERFORMER "Manuel Rocheman"
INDEX 01 00:00:00
TRACK 05 AUDIO
TITLE "For Sandra"
PERFORMER "Manuel Rocheman"
INDEX 00 05:13:43
FILE "05 - For Sandra.wav" WAVE
INDEX 01 00:00:00
TRACK 06 AUDIO
TITLE "Only Child"
PERFORMER "Manuel Rocheman"
INDEX 00 04:22:74
FILE "06 - Only Child.wav" WAVE
INDEX 01 00:00:00
TRACK 07 AUDIO
TITLE "Rhythm Changes"
PERFORMER "Manuel Rocheman"
INDEX 00 03:50:23
FILE "07 - Rhythm Changes.wav" WAVE
INDEX 01 00:00:00
TRACK 08 AUDIO
TITLE "The touch of your lips"
PERFORMER "Manuel Rocheman"
INDEX 00 03:07:47
FILE "08 - The touch of your lips.wav" WAVE
INDEX 01 00:00:00
TRACK 09 AUDIO
TITLE "La Valse des Chipirons"
PERFORMER "Manuel Rocheman"
INDEX 00 04:55:27
FILE "09 - La Valse des Chipirons.wav" WAVE
INDEX 01 00:00:00
TRACK 10 AUDIO
TITLE "Liebesleid"
PERFORMER "Manuel Rocheman"
INDEX 00 03:32:35
FILE "10 - Liebesleid.wav" WAVE
INDEX 01 00:00:00
 
Состав
Manuel Rocheman: piano
Mathias Allamane: bass
Matthieu Chasarenc: drums
По всем вопросам пишите личное сообщение пользователю M0p94ok.
16:17
210
Нет комментариев. Ваш будет первым!