Поиск

(Contemporary Jazz) Mulatu Astatke & The Heliocentrics - Inspiration Information - 2009, APE (tracks + CUE)

Треклист:
Mulatu Astatke & The Heliocentrics - Inspiration Information

Жанр: Contemporary Jazz
Год выпуска диска: 2009
Производитель диска: Германия
Аудио кодек: ape
Тип рипа: tracks + cue
Продолжительность: 1:03:29
Трэклист:
01. Masenco
02. Cha Cha
03. Addis Black Window
04. Mulatu
05. Blue Nile
06. Esketa Dance
07. Chik Chikka
08. Live From Tigre Lounge
09. Chinese New Year
10. Phantom Of The Panther
11. Dewel
12. Fire In Zoo
13. An Epic Story
14. Anglo Ethio Suite
Доп. информация:
 
Отчёт EAC
Exact Audio Copy V0.99 prebeta 4 from 23. January 2008
EAC extraction logfile from 1. July 2009, 13:04
Mulatu \ Heliocentrics / Inspiration Information Vol.3
Used drive : Optiarc DVD RW AD-7173A Adapter: 3 ID: 0
Read mode : Secure
Utilize accurate stream : Yes
Defeat audio cache : Yes
Make use of C2 pointers : No
Read offset correction : 48
Overread into Lead-In and Lead-Out : No
Fill up missing offset samples with silence : Yes
Delete leading and trailing silent blocks : No
Null samples used in CRC calculations : No
Used interface : Native Win32 interface for Win NT & 2000
Gap handling : Appended to previous track
Used output format : Monkey's Audio Lossless Encoder
Selected bitrate : High Lossless Compression
Quality : High
Add ID3 tag : Yes
Command line compressor : C:\Program Files\Monkey's Audio\MAC.exe
TOC of the extracted CD
Track | Start | Length | Start sector | End sector
---------------------------------------------------------
1 | 0:00.00 | 6:23.64 | 0 | 28788
2 | 6:23.64 | 4:35.28 | 28789 | 49441
3 | 10:59.17 | 3:38.74 | 49442 | 65865
4 | 14:38.16 | 3:14.74 | 65866 | 80489
5 | 17:53.15 | 3:12.43 | 80490 | 94932
6 | 21:05.58 | 4:09.23 | 94933 | 113630
7 | 25:15.06 | 5:04.65 | 113631 | 136495
8 | 30:19.71 | 2:54.04 | 136496 | 149549
9 | 33:14.00 | 3:46.30 | 149550 | 166529
10 | 37:00.30 | 2:21.10 | 166530 | 177114
11 | 39:21.40 | 5:49.18 | 177115 | 203307
12 | 45:10.58 | 3:36.25 | 203308 | 219532
13 | 48:47.08 | 5:01.10 | 219533 | 242117
14 | 53:48.18 | 9:40.60 | 242118 | 285677
Track 1
Filename D:\RIPz\Mulatu Astatke & the Heliocentrics - Inspiration Information\01. Mulatu - Heliocentrics – Masenqo.wav
Pre-gap length 0:00:02.00
Peak level 100.0 %
Track quality 99.9 %
Test CRC D7962EF9
Copy CRC D7962EF9
Copy OK
Track 2
Filename D:\RIPz\Mulatu Astatke & the Heliocentrics - Inspiration Information\02. Mulatu - Heliocentrics – Cha Cha.wav
Pre-gap length 0:00:02.11
Peak level 99.4 %
Track quality 100.0 %
Test CRC C56AB0E2
Copy CRC C56AB0E2
Copy OK
Track 3
Filename D:\RIPz\Mulatu Astatke & the Heliocentrics - Inspiration Information\03. Mulatu - Heliocentrics – Addis Black Widow.wav
Pre-gap length 0:00:01.66
Peak level 100.0 %
Track quality 100.0 %
Test CRC 1588B72E
Copy CRC 1588B72E
Copy OK
Track 4
Filename D:\RIPz\Mulatu Astatke & the Heliocentrics - Inspiration Information\04. Mulatu - Heliocentrics – Mulatu.wav
Pre-gap length 0:00:01.66
Peak level 100.0 %
Track quality 100.0 %
Test CRC 829A007E
Copy CRC 829A007E
Copy OK
Track 5
Filename D:\RIPz\Mulatu Astatke & the Heliocentrics - Inspiration Information\05. Mulatu - Heliocentrics – Blue Nile.wav
Pre-gap length 0:00:01.64
Peak level 100.0 %
Track quality 99.9 %
Test CRC AB357708
Copy CRC AB357708
Copy OK
Track 6
Filename D:\RIPz\Mulatu Astatke & the Heliocentrics - Inspiration Information\06. Mulatu - Heliocentrics – Esketa Dance.wav
Pre-gap length 0:00:01.65
Peak level 100.0 %
Track quality 100.0 %
Test CRC 0195B6B3
Copy CRC 0195B6B3
Copy OK
Track 7
Filename D:\RIPz\Mulatu Astatke & the Heliocentrics - Inspiration Information\07. Mulatu - Heliocentrics – Chik Chikka.wav
Pre-gap length 0:00:02.11
Peak level 100.0 %
Track quality 100.0 %
Test CRC A25499D0
Copy CRC A25499D0
Copy OK
Track 8
Filename D:\RIPz\Mulatu Astatke & the Heliocentrics - Inspiration Information\08. Mulatu - Heliocentrics – Live From Tigre Lounge.wav
Pre-gap length 0:00:01.66
Peak level 100.0 %
Track quality 100.0 %
Test CRC 00C5A183
Copy CRC 00C5A183
Copy OK
Track 9
Filename D:\RIPz\Mulatu Astatke & the Heliocentrics - Inspiration Information\09. Mulatu - Heliocentrics – Chinese New Year.wav
Pre-gap length 0:00:01.66
Peak level 100.0 %
Track quality 100.0 %
Test CRC 284FCDC1
Copy CRC 284FCDC1
Copy OK
Track 10
Filename D:\RIPz\Mulatu Astatke & the Heliocentrics - Inspiration Information\10. Mulatu - Heliocentrics – Phantom Of The Panther.wav
Pre-gap length 0:00:02.04
Peak level 100.0 %
Track quality 99.9 %
Test CRC C0237A7B
Copy CRC C0237A7B
Copy OK
Track 11
Filename D:\RIPz\Mulatu Astatke & the Heliocentrics - Inspiration Information\11. Mulatu - Heliocentrics – Dewel.wav
Pre-gap length 0:00:02.10
Peak level 100.0 %
Track quality 100.0 %
Test CRC 3110974C
Copy CRC 3110974C
Copy OK
Track 12
Filename D:\RIPz\Mulatu Astatke & the Heliocentrics - Inspiration Information\12. Mulatu - Heliocentrics – Fire In The Zoo.wav
Pre-gap length 0:00:01.61
Peak level 100.0 %
Track quality 100.0 %
Test CRC FF851C9F
Copy CRC FF851C9F
Copy OK
Track 13
Filename D:\RIPz\Mulatu Astatke & the Heliocentrics - Inspiration Information\13. Mulatu - Heliocentrics – An Epic Story.wav
Pre-gap length 0:00:02.06
Peak level 100.0 %
Track quality 100.0 %
Test CRC A5F1FF46
Copy CRC A5F1FF46
Copy OK
Track 14
Filename D:\RIPz\Mulatu Astatke & the Heliocentrics - Inspiration Information\14. Mulatu - Heliocentrics – Anglo Ethio Suite.wav
Pre-gap length 0:00:01.63
Peak level 100.0 %
Track quality 99.9 %
Test CRC CE9112F0
Copy CRC CE9112F0
Copy OK
No errors occurred
End of status report
По всем вопросам пишите личное сообщение пользователю M0p94ok.
06:50
432
Нет комментариев. Ваш будет первым!