Поиск

(Contemporary Jazz, Modern Jazz) Jasper Van't Hof (with Ernie Watts, Aldo Romano & Bo Stief) / Face to Face - 1994, FLAC (image+.cue), lossless

Треклист:
Jasper Van't Hof (with Ernie Watts, Aldo Romano & Bo Stief) / Face to Face
Жанр: Contemporary Jazz, Modern Jazz
Страна-производитель диска: Canada
Год издания диска: 1994
Издатель (лейбл): Intuition
Номер по каталогу: INT 2063 2
Страна: Netherlands
Аудиокодек: FLAC (*.flac)
Тип рипа: image+.cue
Битрейт аудио: lossless
Продолжительность: 52:32
Источник (релизер): CD
Наличие сканов в содержимом раздачи: да
Треклист:
01 - Kusini (02:57)
02 - Three Doors (07:39)
03 - GetDown (06:01)
04 - Zaire (06:29)
05 - Il Piacere (07:18)
06 - As Well (04:18)
07 - Echoes (06:27)
08 - Krise (06:18)
09 - You Dare (05:00)
 
Лог создания рипа
Exact Audio Copy V1.0 beta 2 from 29. April 2011
EAC extraction logfile from 18. July 2011, 13:33
Jasper van't Hof / Face to Face
Used drive  : Optiarc DVD RW AD-7240S   Adapter: 2  ID: 0
Read mode               : Secure
Utilize accurate stream : Yes
Defeat audio cache      : Yes
Make use of C2 pointers : No
Read offset correction                      : 48
Overread into Lead-In and Lead-Out          : No
Fill up missing offset samples with silence : Yes
Delete leading and trailing silent blocks   : No
Null samples used in CRC calculations       : Yes
Used interface                              : Native Win32 interface for Win NT & 2000
Used output format              : User Defined Encoder
Selected bitrate                : 768 kBit/s
Quality                         : High
Add ID3 tag                     : No
Command line compressor         : C:\Program Files\Exact Audio Copy\FLAC\FLAC.EXE
Additional command line options : -6 -V -T "ARTIST=%artist%" -T "TITLE=%title%" -T "ALBUM=%albumtitle%" -T "DATE=%year%" -T "TRACKNUMBER=%tracknr%" -T "GENRE=%genre%" -T "COMMENT=%comment%" -T "BAND=%albuminterpret%" -T "COMPOSER=%composer%" %haslyrics%--ta
TOC of the extracted CD
     Track |   Start  |  Length  | Start sector | End sector
    ---------------------------------------------------------
        1  |  0:00.00 |  2:57.65 |         0    |    13339
        2  |  2:57.65 |  7:39.40 |     13340    |    47804
        3  | 10:37.30 |  6:01.52 |     47805    |    74931
        4  | 16:39.07 |  6:29.13 |     74932    |   104119
        5  | 23:08.20 |  7:18.60 |    104120    |   137029
        6  | 30:27.05 |  4:18.65 |    137030    |   156444
        7  | 34:45.70 |  6:27.45 |    156445    |   185514
        8  | 41:13.40 |  6:18.10 |    185515    |   213874
        9  | 47:31.50 |  5:01.02 |    213875    |   236451
Range status and errors
Selected range
     Filename C:\Documents and Settings\User\Мои документы\Jasper van't Hof - Face to Face (1994)\Jasper van't Hof - Face to Face.wav
     Peak level 97.3 %
     Extraction speed 3.8 X
     Range quality 99.9 %
     Test CRC 13C47779
     Copy CRC 13C47779
     Copy OK
No errors occurred
AccurateRip summary
Track  1  not present in database
Track  2  not present in database
Track  3  not present in database
Track  4  not present in database
Track  5  not present in database
Track  6  not present in database
Track  7  not present in database
Track  8  not present in database
Track  9  not present in database
None of the tracks are present in the AccurateRip database
End of status report
==== Log checksum 3C262C74BAFE9DD2E56F62FC6271BD1F6DAABCA495AFC0E9A206BA264C34B7CC ====
 
 
Содержание индексной карты (.CUE)
REM GENRE Jazz
REM DATE 1994
REM DISCID 7D0C5009
REM COMMENT "ExactAudioCopy v1.0b2"
PERFORMER "Jasper van't Hof"
TITLE "Face to Face"
FILE "Jasper van't Hof - Face to Face.flac" WAVE
  TRACK 01 AUDIO
    TITLE "Kusini"
    PERFORMER "Jasper van't Hof"
    INDEX 01 00:00:00
  TRACK 02 AUDIO
    TITLE "Three Doors"
    PERFORMER "Jasper van't Hof"
    INDEX 00 02:50:28
    INDEX 01 02:57:65
  TRACK 03 AUDIO
    TITLE "GetDown"
    PERFORMER "Jasper van't Hof"
    INDEX 00 10:34:08
    INDEX 01 10:37:30
  TRACK 04 AUDIO
    TITLE "Zaire"
    PERFORMER "Jasper van't Hof"
    INDEX 00 16:36:18
    INDEX 01 16:39:07
  TRACK 05 AUDIO
    TITLE "Il Piacere"
    PERFORMER "Jasper van't Hof"
    INDEX 00 23:05:13
    INDEX 01 23:08:20
  TRACK 06 AUDIO
    TITLE "As Well"
    PERFORMER "Jasper van't Hof"
    INDEX 00 30:23:40
    INDEX 01 30:27:05
  TRACK 07 AUDIO
    TITLE "Echoes"
    PERFORMER "Jasper van't Hof"
    INDEX 00 34:40:65
    INDEX 01 34:45:70
  TRACK 08 AUDIO
    TITLE "Krise"
    PERFORMER "Jasper van't Hof"
    INDEX 00 41:08:63
    INDEX 01 41:13:40
  TRACK 09 AUDIO
    TITLE "You Dare"
    PERFORMER "Jasper van't Hof"
    INDEX 00 47:26:35
    INDEX 01 47:31:50
 
 
Об исполнителе (группе)
Over the years, jazz pianist Jasper van't Hof has issued solo recordings in addition to working with ensembles. Born on June 30, 1947, in Enschede, Netherlands, van't Hof was born into a musically minded family, as his father was a professional trumpet player and his mother a classical singer, leading to the youngster taking piano lessons from the age of five. By his teenage years, van't Hof knew that he wanted to pursue a career in music, playing in jazz bands in school, and by the age of 19 was playing at jazz festivals with such jazz notables as Pierre Courbois and Toto Blanke (it was while with Blanke that van't Hof co-founded a group called Association P.C.). During the '70s, van't Hof founded another outfit, Pork Pie, teaming up with Philip Catherine (guitar), Charlie Mariano (saxophone), Aldo Romano (drums), and J.F. Jennie Clarke (bass). Other bands that van't Hof contributed to soon followed, including Eyeball (which included sax player Bob Malach), Netherlands Quartet, and Pili Pili. Some solo titles that van't Hof has issued throughout the years include Solo Piano, Face to Face, and Un Incontro Illusorio, among others.
 
 
Об альбоме (сборнике)
Virtuoso dutch pianist Jasper van't Hof, american saxophonist Ernie Watts, italian/french drummer Aldo Romano and danish bassist Bo Stief; the result is simply great acoustic jazz.
 
 
Состав
Jasper van't Hof - piano
Ernie Watts - saxophone
Bo Stief - bass
Aldo Romano - drums
По всем вопросам пишите личное сообщение пользователю M0p94ok.
08:09
328
Нет комментариев. Ваш будет первым!