Вы используете незарегистрированную версию компонента "Вкладки"!

Поиск

(Contemporary Jazz, Modern Jazz) Aki Takase - David Murray / Blue Monk - 1993, FLAC (image+.cue), lossless

(Contemporary Jazz, Modern Jazz) Aki Takase - David Murray / Blue Monk - 1993, FLAC (image+.cue), lossless
Треклист:
Aki Takase - David Murray / Blue Monk
Жанр: Contemporary Jazz, Modern Jazz
Страна-производитель диска: Austria
Год издания диска: 1993
Издатель (лейбл): Enja
Номер по каталогу: ENJA CD 7039-2
Страна: USA-Japan
Аудиокодек: FLAC (*.flac)
Тип рипа: image+.cue
Битрейт аудио: lossless
Продолжительность: 59:35
Источник (релизер): CD
Наличие сканов в содержимом раздачи: да
Треклист:
01 - Blue Monk (3:12)
02 - Ask Me Now (4:55)
03 - Presto V.H. (5:03)
04 - Body & Soul (7:07)
05 - Ellingtonia (3:04)
06 - Bright Mississippi (6:51)
07 - Ba-Lue Bolivar Ba-Lues (7:36)
08 - Mr. Jelly Roll (3:44)
09 - Kaiso (6:32)
10 - Ballad For The Blackman (11:29)
 
Лог создания рипа
Exact Audio Copy V1.0 beta 2 from 29. April 2011
EAC extraction logfile from 21. July 2011, 11:17
Aki Takase, David Murray / Blue Monk
Used drive : Optiarc DVD RW AD-7240S Adapter: 2 ID: 0
Read mode : Secure
Utilize accurate stream : Yes
Defeat audio cache : Yes
Make use of C2 pointers : No
Read offset correction : 48
Overread into Lead-In and Lead-Out : No
Fill up missing offset samples with silence : Yes
Delete leading and trailing silent blocks : No
Null samples used in CRC calculations : Yes
Used interface : Native Win32 interface for Win NT & 2000
Used output format : User Defined Encoder
Selected bitrate : 768 kBit/s
Quality : High
Add ID3 tag : No
Command line compressor : C:\Program Files\Exact Audio Copy\FLAC\FLAC.EXE
Additional command line options : -6 -V -T "ARTIST=%artist%" -T "TITLE=%title%" -T "ALBUM=%albumtitle%" -T "DATE=%year%" -T "TRACKNUMBER=%tracknr%" -T "GENRE=%genre%" -T "COMMENT=%comment%" -T "BAND=%albuminterpret%" -T "COMPOSER=%composer%" %haslyrics%--ta
TOC of the extracted CD
Track | Start | Length | Start sector | End sector
---------------------------------------------------------
1 | 0:00.00 | 3:13.22 | 0 | 14496
2 | 3:13.22 | 4:54.40 | 14497 | 36586
3 | 8:07.62 | 5:02.68 | 36587 | 59304
4 | 13:10.55 | 7:08.27 | 59305 | 91431
5 | 20:19.07 | 3:05.03 | 91432 | 105309
6 | 23:24.10 | 6:50.22 | 105310 | 136081
7 | 30:14.32 | 7:37.13 | 136082 | 170369
8 | 37:51.45 | 3:44.12 | 170370 | 187181
9 | 41:35.57 | 6:32.13 | 187182 | 216594
10 | 48:07.70 | 11:28.02 | 216595 | 268196
Range status and errors
Selected range
Filename C:\Documents and Settings\User\Мои документы\Aki Takase, David Murray - Blue Monk (1993)\Aki Takase, David Murray - Blue Monk.wav
Peak level 94.4 %
Extraction speed 4.0 X
Range quality 99.9 %
Test CRC E8AE9E62
Copy CRC E8AE9E62
Copy OK
No errors occurred
AccurateRip summary
Track 1 accurately ripped (confidence 6) [32A1644F] (AR v1)
Track 2 accurately ripped (confidence 6) [E72E61F2] (AR v1)
Track 3 accurately ripped (confidence 6) [4B495504] (AR v1)
Track 4 accurately ripped (confidence 6) [47187F90] (AR v1)
Track 5 accurately ripped (confidence 5) [A121F8B4] (AR v1)
Track 6 accurately ripped (confidence 6) [D6A403BC] (AR v1)
Track 7 accurately ripped (confidence 6) [BA54873D] (AR v1)
Track 8 accurately ripped (confidence 6) [0607097E] (AR v1)
Track 9 accurately ripped (confidence 6) [4852D39F] (AR v1)
Track 10 accurately ripped (confidence 6) [53FA36BE] (AR v1)
All tracks accurately ripped
End of status report
==== Log checksum DD47D1877F2F4E1AC6A0C69A7DDE7F81DEE775F52F7E5C75480869FCBCEE8B74 ====
 
Содержание индексной карты (.CUE)
REM GENRE Jazz
REM DATE 1993
REM DISCID 980DF70A
REM COMMENT "ExactAudioCopy v1.0b2"
PERFORMER "Aki Takase, David Murray"
TITLE "Blue Monk"
FILE "Aki Takase, David Murray - Blue Monk.flac" WAVE
TRACK 01 AUDIO
TITLE "Blue Monk"
PERFORMER "Aki Takase, David Murray"
INDEX 01 00:00:00
TRACK 02 AUDIO
TITLE "Ask Me Now"
PERFORMER "Aki Takase, David Murray"
INDEX 00 03:10:12
INDEX 01 03:13:22
TRACK 03 AUDIO
TITLE "Presto V.H."
PERFORMER "Aki Takase, David Murray"
INDEX 00 08:05:70
INDEX 01 08:07:62
TRACK 04 AUDIO
TITLE "Body & Soul"
PERFORMER "Aki Takase, David Murray"
INDEX 00 13:09:22
INDEX 01 13:10:55
TRACK 05 AUDIO
TITLE "Ellingtonia"
PERFORMER "Aki Takase, David Murray"
INDEX 00 20:16:70
INDEX 01 20:19:07
TRACK 06 AUDIO
TITLE "Bright Missisippi"
PERFORMER "Aki Takase, David Murray"
INDEX 00 23:21:22
INDEX 01 23:24:10
TRACK 07 AUDIO
TITLE "Ba-Lue Bolivar Ba-Lues"
PERFORMER "Aki Takase, David Murray"
INDEX 00 30:13:05
INDEX 01 30:14:32
TRACK 08 AUDIO
TITLE "Mr. Jelly Roll"
PERFORMER "Aki Takase, David Murray"
INDEX 00 37:49:47
INDEX 01 37:51:45
TRACK 09 AUDIO
TITLE "Kaiso"
PERFORMER "Aki Takase, David Murray"
INDEX 00 41:34:45
INDEX 01 41:35:57
TRACK 10 AUDIO
TITLE "Ballad For The Blackman"
PERFORMER "Aki Takase, David Murray"
INDEX 00 48:06:52
INDEX 01 48:07:70
 
Об альбоме (сборнике)
Pulled this one off the shelf the other day. The case was kinda dusty. Hadn’t been played for years. I was thinking that Aki Takase has recorded quite a few duets with reed players sinse this was put out back in the early nineties and most of them are quite satisfying. Blue Monk with David Murray is in that category as well.
From the first notes on, it’s clear that Aki Takase has a great feel for Monk’s music (partner Alex Schlippenbach shares her affinity). Takase’s confident pianistics are outstanding throughout. Although just four of the ten numbers are from Thelonious’ pen, the session itself is somehow permeated in Monk. David Murray would seem to be a logical choice for a Charlie Rouse replacement, if Monk were alive today. He has always been a strong player with an infinite amount of energy and imagination. His musical contributions on numerous projects are always an added bonus. His tenor and bass clarinet work on this album are typical Murray, full of zest and spunk, probing, daring, and true to the roots melodic. “Ellingtonia” with Murray on bass clarinet and Takase’s old school finger popping is one of the highlights for these ears. “Body and Soul” is given a gut wrenching workout that doesn’t break a sweat, but doesn’t have to. The final-and longest-cut on the disc, a Murray original entitled “Ballad For The Blackman” is an emotional tour-de-force indicating that Murray’s playing definetely is a continuance of the tenor tradition. The rest of the program is just as varied and interesting. This studio session is getting close to twenty years old now, yet still retains some of the original magic from that day. Non-essential but nice to have.
 
Состав
David Murray - bass clarinet, tenor saxophone
Aki Takase - piano
Any questions -> support@pro-jazz.com. По всем вопросам пишите -> support@pro-jazz.com
15:07
162
Нет комментариев. Ваш будет первым!