Вы используете незарегистрированную версию компонента "Вкладки"!

Поиск

(Contemporary Jazz, Modern Creative) Jun Miyake - Mondo Erotica! - 2001, FLAC (image+.cue), lossless

Треклист:
Jun Miyake - Mondo Erotica!
Жанр: Contemporary Jazz, Modern Creative
Год выпуска диска: 2001
Производитель диска: Germany (Tropical Music)
Аудио кодек: FLAC
Тип рипа: image+.cue
Битрейт аудио: lossless
Продолжительность: 51.52
Трэклист:
1. Switch
2. Fresh Of Eve
3. Sus-pecte
4. La Cle
5. Jewel
6. Jelly
7. Elfin
8. Cream
9. Endure
10. Ave Maria
Доп. информация: Drums, Alto & Soprano Saxophones, Bass Clarinet - Dairo Miyamoto
Glockenspiel - Hitoshi Hamada
Fender Rhodes, Flugelhorn, Sampler - Jun Miyake
Harp - Tomoyuki Asakawa
Vibraphone - Hitoshi Hamada
Bass - Getao Takahashi
Cello - Natsumi Kawada , Norio Farukawa, Udai Shika
Piano - Febian Reza Pane
8 String Guitar, Bass - Hitoshi Watanabe
Double Bass - Daiki Yasukagawa
Guitar - Masahiro Itami
Electric Percussion - Whacho
Accordion - Coba
Bandoneon - Hirofumi Mizuno
Viola - Kaori Takahasi, Misako Ueda , Rika Morozumi , Yoshiko Morita
Violin - Asuka Kaneko, Chizuko Takahashi , Jun Takeuchi , Yuko Ohkubo
Bass Clarinet - Dairo Miyamoto
Drums - Shuichi "Ponta" Murakami
Vocals - Satoshi Murakawa , Sublime, CoCa
рип собственный
 
eac log
Exact Audio Copy V0.99 prebeta 5 from 4. May 2009
EAC extraction logfile from 4. May 2010, 15:49
Jun Miyake / Mondo Erotica!
Used drive : TSSTcorpCDDVDW TS-L633C Adapter: 0 ID: 1
Read mode : Secure
Utilize accurate stream : Yes
Defeat audio cache : Yes
Make use of C2 pointers : No
Read offset correction : 6
Overread into Lead-In and Lead-Out : No
Fill up missing offset samples with silence : Yes
Delete leading and trailing silent blocks : No
Null samples used in CRC calculations : Yes
Used interface : Native Win32 interface for Win NT & 2000
Used output format : User Defined Encoder
Selected bitrate : 768 kBit/s
Quality : High
Add ID3 tag : No
Command line compressor : C:\Program Files (x86)\Exact Audio Copy\Flac\flac.exe
Additional command line options : -8 -V %s
TOC of the extracted CD
Track | Start | Length | Start sector | End sector
---------------------------------------------------------
1 | 0:00.00 | 5:18.32 | 0 | 23881
2 | 5:18.32 | 4:39.15 | 23882 | 44821
3 | 9:57.47 | 5:27.33 | 44822 | 69379
4 | 15:25.05 | 7:26.42 | 69380 | 102871
5 | 22:51.47 | 4:05.70 | 102872 | 121316
6 | 26:57.42 | 4:45.45 | 121317 | 142736
7 | 31:43.12 | 3:05.55 | 142737 | 156666
8 | 34:48.67 | 8:58.63 | 156667 | 197079
9 | 43:47.55 | 5:07.12 | 197080 | 220116
10 | 48:54.67 | 2:57.33 | 220117 | 233424
Range status and errors
Selected range
Filename C:\CDs\Jun Miyake - Mondo Erotica!\Jun Miyake - Mondo Erotica!.wav
Peak level 99.8 %
Range quality 100.0 %
Copy CRC 2F315F20
Copy OK
No errors occurred
AccurateRip summary
Track 1 cannot be verified as accurate (confidence 3) [CD0671E9], AccurateRip returned [78102A4E]
Track 2 cannot be verified as accurate (confidence 3) [5FBDB336], AccurateRip returned [4068CBD4]
Track 3 cannot be verified as accurate (confidence 3) [D107CB65], AccurateRip returned [984F1A4C]
Track 4 cannot be verified as accurate (confidence 3) [82652A8F], AccurateRip returned [31BD00E9]
Track 5 cannot be verified as accurate (confidence 3) [DE202F83], AccurateRip returned [F888DC96]
Track 6 cannot be verified as accurate (confidence 3) [D5107DA4], AccurateRip returned [A9033540]
Track 7 cannot be verified as accurate (confidence 3) [4D37901C], AccurateRip returned [652BEC29]
Track 8 cannot be verified as accurate (confidence 3) [F88E97AE], AccurateRip returned [BD8E8E20]
Track 9 cannot be verified as accurate (confidence 3) [D15F47D7], AccurateRip returned [E2ADA24A]
Track 10 cannot be verified as accurate (confidence 3) [F6EFAB81], AccurateRip returned [59D756C3]
No tracks could be verified as accurate
You may have a different pressing from the one(s) in the database
End of status report
 
cue
REM DISCID 900C280A
REM COMMENT "ExactAudioCopy v0.99pb5"
PERFORMER "Jun Miyake"
TITLE "Mondo Erotica!"
FILE "Jun Miyake - Mondo Erotica!.flac" WAVE
TRACK 01 AUDIO
TITLE "Switch"
PERFORMER "Jun Miyake"
INDEX 01 00:00:00
TRACK 02 AUDIO
TITLE "Flesh For Eve"
PERFORMER "Jun Miyake"
INDEX 01 05:18:32
TRACK 03 AUDIO
TITLE "Sus-pecte"
PERFORMER "Jun Miyake"
INDEX 01 09:57:47
TRACK 04 AUDIO
TITLE "La Clй"
PERFORMER "Jun Miyake"
INDEX 01 15:25:05
TRACK 05 AUDIO
TITLE "Jewel"
PERFORMER "Jun Miyake"
INDEX 01 22:51:47
TRACK 06 AUDIO
TITLE "Jelly"
PERFORMER "Jun Miyake"
INDEX 01 26:57:42
TRACK 07 AUDIO
TITLE "Elfin"
PERFORMER "Jun Miyake"
INDEX 01 31:43:12
TRACK 08 AUDIO
TITLE "Cream"
PERFORMER "Jun Miyake"
INDEX 01 34:48:67
TRACK 09 AUDIO
TITLE "Endure"
PERFORMER "Jun Miyake"
INDEX 01 43:47:55
TRACK 10 AUDIO
TITLE "Ave Maria"
PERFORMER "Jun Miyake"
INDEX 01 48:54:67
По всем вопросам пишите личное сообщение пользователю M0p94ok.
22:17
133
Нет комментариев. Ваш будет первым!