Вы используете незарегистрированную версию компонента "Вкладки"!

Поиск

(Contemporary Jazz, Modern Creative, Free Jazz, CIMP) VA - CIMPosium - Volume 18 - 2009, FLAC (tracks+.cue), lossless

(Contemporary Jazz, Modern Creative, Free Jazz, CIMP) VA - CIMPosium - Volume 18 - 2009, FLAC (tracks+.cue), lossless
Треклист:
Various Artists / CIMPosium - Volume 18
Жанр: Contemporary Jazz, Modern Creative, Free Jazz
Страна-производитель диска: USA
Год издания диска: 2009
Издатель (лейбл): CIMP
Номер по каталогу: CIMP #718
Аудиокодек: FLAC (*.flac)
Тип рипа: tracks+.cue
Битрейт аудио: lossless
Продолжительность: 1:13:43
Источник (релизер): CD
Наличие сканов в содержимом раздачи: да
Треклист:
01 - Waltz for Therese - Mat Marucci & Doug Webb Trio
02 - Part 7 - Like Dersu Uzala - David Haney & Julian Priester
03 - Fangle - Chris Kelsey Quartet
04 - Threshold - Stephen Gauci Trio
05 - CRT - Michael Bisio Quartet
06 - Absolute absolutely - Stephen Gauci Quartet
07 - What do you see when you don't know what you're seeing? - Kalaparush McIntyre Quartet
08 - Sampson - David Schnitter - Dominic Duval - Newman Baker
09 - Global Warning - Khan Jamal & Dylan Taylor
10 - Never Disparaging - Bobby Zenkel Trio
11 - Blue Hokum - take 3 - Ernie Krivda
12 - Five Folk Blues - David Haney & Andrew Cyrille
13 - It's yer Birthday - Chris Kelsey Quartet
14 - Five Folk Blues - David Haney - Andrew Cyrille - Dominic Duval
15 - Back to Congo Square, One pt.2 - ESAtrio: Bill Gagliardi - Ken Filiano - Lou Grassi
 
Лог создания рипа
Exact Audio Copy V1.0 beta 2 from 29. April 2011
EAC extraction logfile from 26. September 2011, 11:09
Various Artists / CIMPosium Vol.18
Used drive : Optiarc DVD RW AD-7240S Adapter: 2 ID: 0
Read mode : Secure
Utilize accurate stream : Yes
Defeat audio cache : Yes
Make use of C2 pointers : No
Read offset correction : 48
Overread into Lead-In and Lead-Out : No
Fill up missing offset samples with silence : Yes
Delete leading and trailing silent blocks : No
Null samples used in CRC calculations : Yes
Used interface : Native Win32 interface for Win NT & 2000
Gap handling : Appended to previous track
Used output format : User Defined Encoder
Selected bitrate : 768 kBit/s
Quality : High
Add ID3 tag : No
Command line compressor : C:\Program Files\Exact Audio Copy\FLAC\FLAC.EXE
Additional command line options : -6 -V -T "ARTIST=%artist%" -T "TITLE=%title%" -T "ALBUM=%albumtitle%" -T "DATE=%year%" -T "TRACKNUMBER=%tracknr%" -T "GENRE=%genre%" -T "COMMENT=%comment%" -T "BAND=%albuminterpret%" -T "COMPOSER=%composer%" %haslyrics%--ta
TOC of the extracted CD
Track | Start | Length | Start sector | End sector
---------------------------------------------------------
1 | 0:00.00 | 4:19.69 | 0 | 19493
2 | 4:19.69 | 4:56.74 | 19494 | 41767
3 | 9:16.68 | 4:53.72 | 41768 | 63814
4 | 14:10.65 | 7:03.07 | 63815 | 95546
5 | 21:13.72 | 4:56.04 | 95547 | 117750
6 | 26:10.01 | 5:53.02 | 117751 | 144227
7 | 32:03.03 | 5:25.53 | 144228 | 168655
8 | 37:28.56 | 5:36.31 | 168656 | 193886
9 | 43:05.12 | 2:45.31 | 193887 | 206292
10 | 45:50.43 | 4:04.26 | 206293 | 224618
11 | 49:54.69 | 3:36.28 | 224619 | 240846
12 | 53:31.22 | 4:57.17 | 240847 | 263138
13 | 58:28.39 | 5:22.57 | 263139 | 287345
14 | 63:51.21 | 5:30.34 | 287346 | 312129
15 | 69:21.55 | 4:21.44 | 312130 | 331748
Track 1
Filename C:\CIMPosium Vol.18 (2009)\01 Waltz For Therese.wav
Pre-gap length 0:00:02.00
Peak level 47.1 %
Extraction speed 2.2 X
Track quality 99.9 %
Test CRC 2C3F20E3
Copy CRC 2C3F20E3
Track not present in AccurateRip database
Copy OK
Track 2
Filename C:\CIMPosium Vol.18 (2009)\02 Part 7 - Like Dersu Uzala.wav
Pre-gap length 0:00:02.58
Peak level 44.7 %
Extraction speed 2.8 X
Track quality 100.0 %
Test CRC 5E464A06
Copy CRC 5E464A06
Track not present in AccurateRip database
Copy OK
Track 3
Filename C:\CIMPosium Vol.18 (2009)\03 Fangle.wav
Pre-gap length 0:00:02.58
Peak level 89.0 %
Extraction speed 3.1 X
Track quality 100.0 %
Test CRC 4D039BE8
Copy CRC 4D039BE8
Track not present in AccurateRip database
Copy OK
Track 4
Filename C:\CIMPosium Vol.18 (2009)\04 Threshold.wav
Pre-gap length 0:00:02.58
Peak level 91.7 %
Extraction speed 3.5 X
Track quality 100.0 %
Test CRC FDA24DE3
Copy CRC FDA24DE3
Track not present in AccurateRip database
Copy OK
Track 5
Filename C:\CIMPosium Vol.18 (2009)\05 CRT.wav
Pre-gap length 0:00:02.58
Peak level 94.7 %
Extraction speed 3.6 X
Track quality 100.0 %
Test CRC 025B5A02
Copy CRC 025B5A02
Track not present in AccurateRip database
Copy OK
Track 6
Filename C:\CIMPosium Vol.18 (2009)\06 Absolute Absolutely.wav
Pre-gap length 0:00:02.58
Peak level 66.3 %
Extraction speed 4.0 X
Track quality 100.0 %
Test CRC 92316235
Copy CRC 92316235
Track not present in AccurateRip database
Copy OK
Track 7
Filename C:\CIMPosium Vol.18 (2009)\07 What Do You See When You Don't Know What You're Seeing.wav
Pre-gap length 0:00:02.58
Peak level 100.0 %
Extraction speed 3.8 X
Track quality 99.9 %
Test CRC 009CBCE8
Copy CRC 009CBCE8
Track not present in AccurateRip database
Copy OK
Track 8
Filename C:\CIMPosium Vol.18 (2009)\08 Sampson.wav
Pre-gap length 0:00:02.58
Peak level 92.5 %
Extraction speed 4.4 X
Track quality 100.0 %
Test CRC 7B68FB34
Copy CRC 7B68FB34
Track not present in AccurateRip database
Copy OK
Track 9
Filename C:\CIMPosium Vol.18 (2009)\09 Global Warning.wav
Pre-gap length 0:00:02.58
Peak level 69.1 %
Extraction speed 4.2 X
Track quality 100.0 %
Test CRC 9B8D832F
Copy CRC 9B8D832F
Track not present in AccurateRip database
Copy OK
Track 10
Filename C:\CIMPosium Vol.18 (2009)\10 Never Disparaging.wav
Pre-gap length 0:00:02.58
Peak level 95.7 %
Extraction speed 4.0 X
Track quality 99.9 %
Test CRC FBE18E67
Copy CRC FBE18E67
Track not present in AccurateRip database
Copy OK
Track 11
Filename C:\CIMPosium Vol.18 (2009)\11 Blue Hokum.wav
Pre-gap length 0:00:02.58
Peak level 93.2 %
Extraction speed 4.5 X
Track quality 100.0 %
Test CRC 85562525
Copy CRC 85562525
Track not present in AccurateRip database
Copy OK
Track 12
Filename C:\CIMPosium Vol.18 (2009)\12 Five Folk Blues.wav
Pre-gap length 0:00:02.58
Peak level 39.0 %
Extraction speed 4.9 X
Track quality 100.0 %
Test CRC 55EF918D
Copy CRC 55EF918D
Track not present in AccurateRip database
Copy OK
Track 13
Filename C:\CIMPosium Vol.18 (2009)\13 It's Yer Birthday.wav
Pre-gap length 0:00:02.58
Peak level 84.6 %
Extraction speed 5.1 X
Track quality 100.0 %
Test CRC 7ADA8488
Copy CRC 7ADA8488
Track not present in AccurateRip database
Copy OK
Track 14
Filename C:\CIMPosium Vol.18 (2009)\14 Five Folk Blues.wav
Pre-gap length 0:00:02.58
Peak level 21.0 %
Extraction speed 5.3 X
Track quality 100.0 %
Test CRC 51CDA589
Copy CRC 51CDA589
Track not present in AccurateRip database
Copy OK
Track 15
Filename C:\CIMPosium Vol.18 (2009)\15 Back To Congo Square, One Pt.2.wav
Pre-gap length 0:00:02.58
Peak level 74.6 %
Extraction speed 4.7 X
Track quality 99.9 %
Test CRC 66948622
Copy CRC 66948622
Track not present in AccurateRip database
Copy OK
None of the tracks are present in the AccurateRip database
No errors occurred
End of status report
==== Log checksum 4504EBCA71324FE562ADA2C4AB31F15ADFED62C5696E97223B462ADA8226C1F9 ====
 
Содержание индексной карты (.CUE)
REM GENRE Jazz
REM DATE 2009
REM DISCID D511470F
REM COMMENT "ExactAudioCopy v1.0b2"
PERFORMER "Various Artists"
TITLE "CIMPosium Vol.18"
FILE "01 Waltz For Therese.wav" WAVE
TRACK 01 AUDIO
TITLE "Waltz For Therese"
PERFORMER "Mat Marucci & Dong Webb Trio"
INDEX 01 00:00:00
TRACK 02 AUDIO
TITLE "Part 7 - Like Dersu Uzala"
PERFORMER "David Haney & Julian Priester"
INDEX 00 04:17:11
FILE "02 Part 7 - Like Dersu Uzala.wav" WAVE
INDEX 01 00:00:00
TRACK 03 AUDIO
TITLE "Fangle"
PERFORMER "Chris Kelsey Quartet"
INDEX 00 04:54:16
FILE "03 Fangle.wav" WAVE
INDEX 01 00:00:00
TRACK 04 AUDIO
TITLE "Threshold"
PERFORMER "Stephen Gauci Trio"
INDEX 00 04:51:14
FILE "04 Threshold.wav" WAVE
INDEX 01 00:00:00
TRACK 05 AUDIO
TITLE "CRT"
PERFORMER "Michael Bisio Quartet"
INDEX 00 07:00:24
FILE "05 CRT.wav" WAVE
INDEX 01 00:00:00
TRACK 06 AUDIO
TITLE "Absolute Absolutely"
PERFORMER "Stephen Gauci Quartet"
INDEX 00 04:53:21
FILE "06 Absolute Absolutely.wav" WAVE
INDEX 01 00:00:00
TRACK 07 AUDIO
TITLE "What Do You See When You Don't Know What You're Seeing?"
PERFORMER "Kalaparush Mcintyre Quartet"
INDEX 00 05:50:19
FILE "07 What Do You See When You Don't Know What You're Seeing.wav" WAVE
INDEX 01 00:00:00
TRACK 08 AUDIO
TITLE "Sampson"
PERFORMER "D.Schnitter-D.Duval-N.Taylor Baker"
INDEX 00 05:22:70
FILE "08 Sampson.wav" WAVE
INDEX 01 00:00:00
TRACK 09 AUDIO
TITLE "Global Warning"
PERFORMER "Khan Jamal & Dylan Taylor"
INDEX 00 05:33:48
FILE "09 Global Warning.wav" WAVE
INDEX 01 00:00:00
TRACK 10 AUDIO
TITLE "Never Disparaging"
PERFORMER "Bobby Zankel Trio"
INDEX 00 02:42:48
FILE "10 Never Disparaging.wav" WAVE
INDEX 01 00:00:00
TRACK 11 AUDIO
TITLE "Blue Hokum"
PERFORMER "Ernie Krivda & The Art Of The Trio"
INDEX 00 04:01:43
FILE "11 Blue Hokum.wav" WAVE
INDEX 01 00:00:00
TRACK 12 AUDIO
TITLE "Five Folk Blues"
PERFORMER "David Haney & Andrew Cyrille"
INDEX 00 03:33:45
FILE "12 Five Folk Blues.wav" WAVE
INDEX 01 00:00:00
TRACK 13 AUDIO
TITLE "It's Yer Birthday"
PERFORMER "Chris Kelsey Quartet"
INDEX 00 04:54:34
FILE "13 It's Yer Birthday.wav" WAVE
INDEX 01 00:00:00
TRACK 14 AUDIO
TITLE "Five Folk Blues"
PERFORMER "D.Haney & A.Cyrille & D.Duval"
INDEX 00 05:19:74
FILE "14 Five Folk Blues.wav" WAVE
INDEX 01 00:00:00
TRACK 15 AUDIO
TITLE "Back To Congo Square, One Pt.2"
PERFORMER "ESATrio: B.Gagliardi-K.Filiano-L.Grassi"
INDEX 00 05:27:51
FILE "15 Back To Congo Square, One Pt.2.wav" WAVE
INDEX 01 00:00:00
Any questions -> support@pro-jazz.com. По всем вопросам пишите -> support@pro-jazz.com
17:07
139
Нет комментариев. Ваш будет первым!