Поиск

(Contemporary Jazz, Modal, Post-Bop) [CD] Alan Pasqua - Twin Bill: Two Piano Music of Bill Evans - 2012, FLAC (tracks+.cue), lossless

(Contemporary Jazz, Modal, Post-Bop) [CD] Alan Pasqua - Twin Bill: Two Piano Music of Bill Evans - 2012, FLAC (tracks+.cue), lossless
Треклист:
Alan Pasqua - Twin Bill: Two Piano Music of Bill Evans
Жанр: Contemporary Jazz, Modal, Post-Bop
Носитель: CD
Страна-производитель диска (релиза): Австрия
Год издания: 2012
Издатель (лейбл): Challenge Records
Номер по каталогу: CR73343
Аудиокодек: FLAC (*.flac)
Тип рипа: tracks+.cue
Битрейт аудио: lossless
Продолжительность: 61:11
Источник (релизер): femalecop
Наличие сканов в содержимом раздачи: нет
Треклист:
01. Very Early (7:54)
02. Nardis (5:21)
03. Time Remembered (5:33)
04. Gloria's Step (6:54)
05. Turn Out the Stars (4:04)
06. Funkallero (5:19)
07. Take Me Out to the Ballgame (3:20)
08. Interplay (6:52)
09. Walkin' Up (4:51)
10. Vindarna Sucka Uti Skogarna (4:23)
11. Grace (6:40)
Состав:
Alan Pasqua - pianos
Recorded at RSN West Studios, Santa Monica, CA in June 2011.
 
Лог создания рипа
Exact Audio Copy V1.3 from 2. September 2016
EAC extraction logfile from 17. November 2017, 12:38
Alan Pasqua / Twin Bill
Used drive  : ATAPI   iHAS122   F   Adapter: 1  ID: 0
Read mode               : Secure
Utilize accurate stream : Yes
Defeat audio cache      : Yes
Make use of C2 pointers : No
Read offset correction                      : 6
Overread into Lead-In and Lead-Out          : No
Fill up missing offset samples with silence : Yes
Delete leading and trailing silent blocks   : No
Null samples used in CRC calculations       : Yes
Used interface                              : Native Win32 interface for Win NT & 2000
Gap handling                                : Appended to previous track
Used output format              : User Defined Encoder
Selected bitrate                : 1024 kBit/s
Quality                         : High
Add ID3 tag                     : No
Command line compressor         : C:\Program Files (x86)\Exact Audio Copy\Flac\flac.exe
Additional command line options : -8 -e -V -T "ARTIST=%artist%" -T "TITLE=%title%" -T "ALBUM=%albumtitle%" -T "DATE=%year%" -T "TRACKNUMBER=%tracknr%" -T "GENRE=%genre%" -T "PERFORMER=%albuminterpret%" -T "COMPOSER=%composer%" %haslyrics%--tag-from-file=LYRICS="%lyricsfile%"%haslyrics% -T "ALBUMARTIST=%albumartist%" -T "DISCNUMBER=%cdnumber%" -T "TOTALDISCS=%totalcds%" -T "TOTALTRACKS=%numtracks%" -T "COMMENT=%comment%" %source% -o %dest%
TOC of the extracted CD
     Track |   Start  |  Length  | Start sector | End sector
    ---------------------------------------------------------
        1  |  0:00.00 |  7:54.00 |         0    |    35549
        2  |  7:54.00 |  5:20.63 |     35550    |    59612
        3  | 13:14.63 |  5:32.67 |     59613    |    84579
        4  | 18:47.55 |  6:54.20 |     84580    |   115649
        5  | 25:42.00 |  4:03.58 |    115650    |   133932
        6  | 29:45.58 |  5:19.19 |    133933    |   157876
        7  | 35:05.02 |  3:20.00 |    157877    |   172876
        8  | 38:25.02 |  6:51.60 |    172877    |   203761
        9  | 45:16.62 |  4:51.26 |    203762    |   225612
       10  | 50:08.13 |  4:22.64 |    225613    |   245326
       11  | 54:31.02 |  6:40.00 |    245327    |   275326
Track  1
     Filename D:\Rips\Alan Pasqua - Twin Bill - Two Piano Music of Bill Evans (2012) [FLAC] {CR73343}\01 - Very Early.wav
     Pre-gap length  0:00:02.00
     Peak level 66.7 %
     Extraction speed 5.7 X
     Track quality 100.0 %
     Test CRC 434EFD99
     Copy CRC 434EFD99
     Cannot be verified as accurate (confidence 6)  [3182049D], AccurateRip returned [AFC17216]  (AR v2)
     Copy OK
Track  2
     Filename D:\Rips\Alan Pasqua - Twin Bill - Two Piano Music of Bill Evans (2012) [FLAC] {CR73343}\02 - Nardis.wav
     Peak level 57.7 %
     Extraction speed 6.3 X
     Track quality 100.0 %
     Test CRC 528A923F
     Copy CRC 528A923F
     Cannot be verified as accurate (confidence 6)  [81A8FD9F], AccurateRip returned [49EE55A0]  (AR v2)
     Copy OK
Track  3
     Filename D:\Rips\Alan Pasqua - Twin Bill - Two Piano Music of Bill Evans (2012) [FLAC] {CR73343}\03 - Time Remembered.wav
     Peak level 76.0 %
     Extraction speed 7.0 X
     Track quality 100.0 %
     Test CRC B7F736F9
     Copy CRC B7F736F9
     Cannot be verified as accurate (confidence 6)  [68029E95], AccurateRip returned [5EB2BB75]  (AR v2)
     Copy OK
Track  4
     Filename D:\Rips\Alan Pasqua - Twin Bill - Two Piano Music of Bill Evans (2012) [FLAC] {CR73343}\04 - Gloria's Step.wav
     Peak level 67.0 %
     Extraction speed 7.7 X
     Track quality 100.0 %
     Test CRC 6458CEF3
     Copy CRC 6458CEF3
     Cannot be verified as accurate (confidence 6)  [4FADD07A], AccurateRip returned [4B83961B]  (AR v2)
     Copy OK
Track  5
     Filename D:\Rips\Alan Pasqua - Twin Bill - Two Piano Music of Bill Evans (2012) [FLAC] {CR73343}\05 - Turn Out the Stars.wav
     Peak level 60.7 %
     Extraction speed 7.9 X
     Track quality 100.0 %
     Test CRC 41CE293E
     Copy CRC 41CE293E
     Cannot be verified as accurate (confidence 6)  [9DAA3CAC], AccurateRip returned [220678F7]  (AR v2)
     Copy OK
Track  6
     Filename D:\Rips\Alan Pasqua - Twin Bill - Two Piano Music of Bill Evans (2012) [FLAC] {CR73343}\06 - Funkallero.wav
     Peak level 82.5 %
     Extraction speed 8.4 X
     Track quality 100.0 %
     Test CRC 270B4EA5
     Copy CRC 270B4EA5
     Cannot be verified as accurate (confidence 6)  [1FBA4CFA], AccurateRip returned [B842EE1C]  (AR v2)
     Copy OK
Track  7
     Filename D:\Rips\Alan Pasqua - Twin Bill - Two Piano Music of Bill Evans (2012) [FLAC] {CR73343}\07 - Take Me Out to the Ballgame.wav
     Peak level 79.7 %
     Extraction speed 8.3 X
     Track quality 100.0 %
     Test CRC 2465D60E
     Copy CRC 2465D60E
     Cannot be verified as accurate (confidence 6)  [AA97D296], AccurateRip returned [40EB0A80]  (AR v2)
     Copy OK
Track  8
     Filename D:\Rips\Alan Pasqua - Twin Bill - Two Piano Music of Bill Evans (2012) [FLAC] {CR73343}\08 - Interplay.wav
     Peak level 88.6 %
     Extraction speed 9.5 X
     Track quality 100.0 %
     Test CRC B5AD3C25
     Copy CRC B5AD3C25
     Cannot be verified as accurate (confidence 6)  [8275FAA3], AccurateRip returned [C2867C28]  (AR v2)
     Copy OK
Track  9
     Filename D:\Rips\Alan Pasqua - Twin Bill - Two Piano Music of Bill Evans (2012) [FLAC] {CR73343}\09 - Walkin' Up.wav
     Peak level 72.9 %
     Extraction speed 9.6 X
     Track quality 100.0 %
     Test CRC A2B6B644
     Copy CRC A2B6B644
     Cannot be verified as accurate (confidence 6)  [9296617C], AccurateRip returned [96E91202]  (AR v2)
     Copy OK
Track 10
     Filename D:\Rips\Alan Pasqua - Twin Bill - Two Piano Music of Bill Evans (2012) [FLAC] {CR73343}\10 - Vindarna Sucka Uti Skogarna.wav
     Peak level 80.8 %
     Extraction speed 9.7 X
     Track quality 100.0 %
     Test CRC D884BE32
     Copy CRC D884BE32
     Cannot be verified as accurate (confidence 6)  [DA26C6D5], AccurateRip returned [1E3FF9F6]  (AR v2)
     Copy OK
Track 11
     Filename D:\Rips\Alan Pasqua - Twin Bill - Two Piano Music of Bill Evans (2012) [FLAC] {CR73343}\11 - Grace.wav
     Peak level 75.2 %
     Extraction speed 10.4 X
     Track quality 100.0 %
     Test CRC 8F880B48
     Copy CRC 8F880B48
     Cannot be verified as accurate (confidence 6)  [9BB7E273], AccurateRip returned [B2A15F02]  (AR v2)
     Copy OK
No tracks could be verified as accurate
You may have a different pressing from the one(s) in the database
No errors occurred
End of status report
---- CUETools DB Plugin V2.1.6
[CTDB TOCID: 23iLfudxnef3i0AJ3AoRYAJm2F4-] found
Submit result: 23iLfudxnef3i0AJ3AoRYAJm2F4- has been confirmed
Track | CTDB Status
  1   | (6/6) Accurately ripped
  2   | (6/6) Accurately ripped
  3   | (6/6) Accurately ripped
  4   | (6/6) Accurately ripped
  5   | (6/6) Accurately ripped
  6   | (6/6) Accurately ripped
  7   | (6/6) Accurately ripped
  8   | (6/6) Accurately ripped
  9   | (6/6) Accurately ripped
 10   | (6/6) Accurately ripped
 11   | (6/6) Accurately ripped
==== Log checksum 6922B924E81692AE5BC2CCA20CD965EAF6083908B98E5B2CFCD8F7A0272873FB ====
 
 
Содержание индексной карты (.CUE)
REM GENRE Jazz
REM DATE 2012
REM DISCID 960E570B
REM COMMENT "ExactAudioCopy v1.3"
CATALOG 0030206241129
PERFORMER "Alan Pasqua"
TITLE "Twin Bill: Two Piano Music of Bill Evans"
FILE "01 - Very Early.wav" WAVE
  TRACK 01 AUDIO
    TITLE "Very Early"
    PERFORMER "Alan Pasqua"
    ISRC US4R31111119
    INDEX 01 00:00:00
FILE "02 - Nardis.wav" WAVE
  TRACK 02 AUDIO
    TITLE "Nardis"
    PERFORMER "Alan Pasqua"
    ISRC US4R31111120
    INDEX 01 00:00:00
FILE "03 - Time Remembered.wav" WAVE
  TRACK 03 AUDIO
    TITLE "Time Remembered"
    PERFORMER "Alan Pasqua"
    ISRC US4R31111121
    INDEX 01 00:00:00
FILE "04 - Gloria's Step.wav" WAVE
  TRACK 04 AUDIO
    TITLE "Gloria's Step"
    PERFORMER "Alan Pasqua"
    ISRC US4R31111122
    INDEX 01 00:00:00
FILE "05 - Turn Out the Stars.wav" WAVE
  TRACK 05 AUDIO
    TITLE "Turn Out the Stars"
    PERFORMER "Alan Pasqua"
    ISRC US4R31111123
    INDEX 01 00:00:00
FILE "06 - Funkallero.wav" WAVE
  TRACK 06 AUDIO
    TITLE "Funkallero"
    PERFORMER "Alan Pasqua"
    ISRC US4R31111124
    INDEX 01 00:00:00
FILE "07 - Take Me Out to the Ballgame.wav" WAVE
  TRACK 07 AUDIO
    TITLE "Take Me Out to the Ballgame"
    PERFORMER "Alan Pasqua"
    ISRC US4R31111125
    INDEX 01 00:00:00
FILE "08 - Interplay.wav" WAVE
  TRACK 08 AUDIO
    TITLE "Interplay"
    PERFORMER "Alan Pasqua"
    ISRC US4R31111126
    INDEX 01 00:00:00
FILE "09 - Walkin' Up.wav" WAVE
  TRACK 09 AUDIO
    TITLE "Walkin' Up"
    PERFORMER "Alan Pasqua"
    ISRC US4R31111127
    INDEX 01 00:00:00
FILE "10 - Vindarna Sucka Uti Skogarna.wav" WAVE
  TRACK 10 AUDIO
    TITLE "Vindarna Sucka Uti Skogarna"
    PERFORMER "Alan Pasqua"
    ISRC US4R31111128
    INDEX 01 00:00:00
FILE "11 - Grace.wav" WAVE
  TRACK 11 AUDIO
    TITLE "Grace"
    PERFORMER "Alan Pasqua"
    ISRC US4R31111129
    INDEX 01 00:00:00
 
 
Отчет CUETools
[CUETools log; Date: 24.05.2018 21:48:26; Version: 2.1.5]
[CTDB TOCID: 23iLfudxnef3i0AJ3AoRYAJm2F4-] found.
Track | CTDB Status
  1   | (7/7) Accurately ripped
  2   | (7/7) Accurately ripped
  3   | (7/7) Accurately ripped
  4   | (7/7) Accurately ripped
  5   | (7/7) Accurately ripped
  6   | (7/7) Accurately ripped
  7   | (7/7) Accurately ripped
  8   | (7/7) Accurately ripped
  9   | (7/7) Accurately ripped
 10   | (7/7) Accurately ripped
 11   | (7/7) Accurately ripped
[AccurateRip ID: 001a181d-00de06f4-960e570b] found.
Track   [  CRC   |   V2   ] Status
 01     [af78146f|3182049d] (0+0/6) No match
 02     [eb47f071|81a8fd9f] (0+0/6) No match
 03     [3142f3ec|68029e95] (0+0/6) No match
 04     [cf48d847|4fadd07a] (0+0/6) No match
 05     [a75b1481|9daa3cac] (0+0/6) No match
 06     [43351f71|1fba4cfa] (0+0/6) No match
 07     [dd7f91c4|aa97d296] (0+0/6) No match
 08     [7f116859|8275faa3] (0+0/6) No match
 09     [8d28b4bc|9296617c] (0+0/6) No match
 10     [f7d96f7b|da26c6d5] (0+0/6) No match
 11     [3f1b3fbb|9bb7e273] (0+0/6) No match
Offsetted by 36:
 01     [35036e76] (0/6) No match (V2 was not tested)
 02     [b5ddbdda] (0/6) No match (V2 was not tested)
 03     [2a65b717] (0/6) No match (V2 was not tested)
 04     [d06b6c9a] (0/6) No match (V2 was not tested)
 05     [2f67218a] (0/6) No match (V2 was not tested)
 06     [df0c1379] (0/6) No match (V2 was not tested)
 07     [77628cfe] (0/6) No match (V2 was not tested)
 08     [c141906b] (0/6) No match (V2 was not tested)
 09     [98f2e901] (0/6) No match (V2 was not tested)
 10     [3e8fac19] (0/6) No match (V2 was not tested)
 11     [614b672e] (0/6) No match (V2 was not tested)
Track Peak [ CRC32  ] [W/O NULL] [  LOG   ]
 --   88,6 [4F499577] [B3D316CC]
 01   66,7 [434EFD99] [0A5309B5]   CRC32
 02   57,7 [528A923F] [65217638]   CRC32
 03   76,0 [B7F736F9] [77302D9B]   CRC32
 04   67,0 [6458CEF3] [F9CB1914]   CRC32
 05   60,7 [41CE293E] [435F9DC7]   CRC32
 06   82,5 [270B4EA5] [4298730E]   CRC32
 07   79,7 [2465D60E] [E03CB2B4]   CRC32
 08   88,6 [B5AD3C25] [7BBC4063]   CRC32
 09   72,9 [A2B6B644] [99FFB8D3]   CRC32
 10   80,8 [D884BE32] [A3289C2D]   CRC32
 11   75,2 [8F880B48] [212D56EC]   CRC32
 
 
AllMusic Review by Ken Dryden
Alan Pasqua has played in a variety of musical settings, including jazz, pop, soul, and movie soundtracks. Currently the Chairman of Jazz Studies at USC, he studied with noted composer George Russell and has worked with Tony Williams Lifetime, Paul Motian, Thad Jones/Mel Lewis Jazz Orchestra, James Moody, and others. Pasqua also spent time with Bob Dylan, Ray Charles, and Santana. For this tribute to Bill Evans, Pasqua recorded two separate piano lines via overdubbing, being careful to leave enough breathing room for the listener, while also trying to incorporate the spirit of Evans without sounding like a mere carbon copy. Six of the pieces are Evans' originals. He captures the wistful nature of the lovely ballad "Time Remembered" in an Impressionistic manner, with a sparse, deliberate arrangement. Evans tended to increase the tempo of "Very Early" as he aged, though Pasqua emphasizes its lyricism by playing it as an intimate jazz waltz. The pianist also captures the playful nature of the jaunty "Walkin' Up." Miles Davis' "Nardis" is forever associated with Evans, as he recorded it numerous times over a two-decade stretch. Pasqua's approach is less aggressive but still potent, though his unresolved ending is not as satisfying. "Take Me Out to the Ballgame" was never recorded by Evans, though Pasqua's witty, waltz-time arrangement shows the depth of his influence, while his haunting "Grace" could easily be considered a requiem for the jazz piano master, who died at the age of 51 in 1980.
По всем вопросам пишите личное сообщение пользователю M0p94ok.
10:26
281
Нет комментариев. Ваш будет первым!