Поиск

(Contemporary Jazz) Michel Portal - Dipping In Minneapolis - 2002 (3CD), FLAC (image + .cue), lossless

(Contemporary Jazz) Michel Portal - Dipping In Minneapolis - 2002 (3CD), FLAC (image + .cue), lossless
Треклист:
Michel Portal - Dipping In Minneapolis (3CD)

Страна: Франция
Жанр: Contemporary Jazz
Год выпуска: 2002
Формат: FLAC (image + .cue)
Битрейт аудио: lossless
Продолжительность: 1:12:21 + 1:18:11 + 1:13:58
Трэклист:
Michel Portal - Minneapolis
 
скрытый текст
Exact Audio Copy V1.0 beta 2 from 29. April 2011
Отчёт EAC об извлечении, выполненном 22. августа 2011, 13:27
Michel Portal / Minneapolis
Дисковод: ASUS DRW-2014S1T Adapter: 2 ID: 0
Режим чтения : Достоверность
Использование точного потока : Да
Отключение кэша аудио : Да
Использование указателей C2 : Нет
Коррекция смещения при чтении : 6
Способность читать области Lead-in и Lead-out : Нет
Заполнение пропущенных сэмплов тишиной : Да
Удаление блоков с тишиной в начале и конце : Нет
При вычислениях CRC использовались нулевые сэмплы : Да
Интерфейс : Встроенный Win32-интерфейс для Win NT/2000
Выходной формат : Внутренние WAV-операции
Формат сэмплов : 44.100 Гц; 16 бит; стерео
TOC извлечённого CD
Трек | Старт | Длительность | Начальный сектор | Конечный сектор
---------------------------------------------------------------------
1 | 0:00.00 | 1:23.63 | 0 | 6287
2 | 1:23.63 | 3:47.25 | 6288 | 23337
3 | 5:11.13 | 4:23.60 | 23338 | 43122
4 | 9:34.73 | 4:55.18 | 43123 | 65265
5 | 14:30.16 | 7:17.64 | 65266 | 98104
6 | 21:48.05 | 4:45.26 | 98105 | 119505
7 | 26:33.31 | 4:18.64 | 119506 | 138919
8 | 30:52.20 | 2:31.54 | 138920 | 150298
9 | 33:23.74 | 6:54.40 | 150299 | 181388
10 | 40:18.39 | 8:30.24 | 181389 | 219662
11 | 48:48.63 | 7:18.65 | 219663 | 252577
12 | 56:07.53 | 4:10.04 | 252578 | 271331
13 | 60:17.57 | 4:39.10 | 271332 | 292266
14 | 64:56.67 | 7:24.23 | 292267 | 325589
Характеристики диапазона извлечения и сообщения об ошибках
Выбранный диапазон
Имя файла G:\MUSIC\MICHEL PORTAL\Michel Portal - 2002 - Dipping In Minneapolis\CD1 - Minneapolis\Michel Portal - Minneapolis.wav
Пиковый уровень 100.0 %
Скорость извлечения 9.3 X
Качество диапазона 100.0 %
CRC теста B656BD83
CRC копии B656BD83
Копирование... OK
Ошибок не произошло
AccurateRip: сводка
Трек 1 : извлечено точно (доверие 23) [32F37C83] (AR v1)
Трек 2 : извлечено точно (доверие 24) [F1EF8128] (AR v1)
Трек 3 : извлечено точно (доверие 23) [3190B236] (AR v1)
Трек 4 : извлечено точно (доверие 22) [EF1E787A] (AR v1)
Трек 5 : извлечено точно (доверие 23) [B2C59459] (AR v1)
Трек 6 : извлечено точно (доверие 23) [7B476FC3] (AR v1)
Трек 7 : извлечено точно (доверие 23) [0B8AA638] (AR v1)
Трек 8 : извлечено точно (доверие 22) [3B6ECF13] (AR v1)
Трек 9 : извлечено точно (доверие 23) [65D7C908] (AR v1)
Трек 10 : извлечено точно (доверие 22) [D318C547] (AR v1)
Трек 11 : извлечено точно (доверие 20) [28C79B2D] (AR v1)
Трек 12 : извлечено точно (доверие 22) [200A8A93] (AR v1)
Трек 13 : извлечено точно (доверие 22) [67EDCD25] (AR v1)
Трек 14 : извлечено точно (доверие 21) [7E9DD6CE] (AR v1)
Все треки извлечены точно
Конец отчёта

01. Domimonk 01:23
02. M.P. On The Run 03:47
03. Sky Tinted Water 04:23
04. Matourmatourmatourmalet 04:55
05. Good Bye Pork Pie Hat 07:17
06. On Nicolette Avenue 04:45
07. The Squirrel And The Loons 04:18
08. The Talking Bag (Twins In The City) 02:31
09. Judy Garland 06:54
10. Solitudes 08:30
11. The Dred Scott Marker 07:18
12. Shopping For Black Shirts 04:10
13. Au Blackdog 04:39
14. Cinco De La Tarde 07:24
Michel Portal - Minneapolis We Insist !
 
скрытый текст
Exact Audio Copy V1.0 beta 2 from 29. April 2011
Отчёт EAC об извлечении, выполненном 22. августа 2011, 13:46
Michel Portal / Minneapolis We Insist!
Дисковод: ASUS DRW-2014S1T Adapter: 2 ID: 0
Режим чтения : Достоверность
Использование точного потока : Да
Отключение кэша аудио : Да
Использование указателей C2 : Нет
Коррекция смещения при чтении : 6
Способность читать области Lead-in и Lead-out : Нет
Заполнение пропущенных сэмплов тишиной : Да
Удаление блоков с тишиной в начале и конце : Нет
При вычислениях CRC использовались нулевые сэмплы : Да
Интерфейс : Встроенный Win32-интерфейс для Win NT/2000
Выходной формат : Внутренние WAV-операции
Формат сэмплов : 44.100 Гц; 16 бит; стерео
TOC извлечённого CD
Трек | Старт | Длительность | Начальный сектор | Конечный сектор
---------------------------------------------------------------------
1 | 0:00.00 | 7:53.38 | 0 | 35512
2 | 7:53.38 | 8:05.36 | 35513 | 71923
3 | 15:58.74 | 6:14.09 | 71924 | 99982
4 | 22:13.08 | 8:48.02 | 99983 | 139584
5 | 31:01.10 | 4:33.05 | 139585 | 160064
6 | 35:34.15 | 5:09.04 | 160065 | 183243
7 | 40:43.19 | 4:38.48 | 183244 | 204141
8 | 45:21.67 | 5:31.47 | 204142 | 229013
9 | 50:53.39 | 6:31.44 | 229014 | 258382
10 | 57:25.08 | 0:18.56 | 258383 | 259788
11 | 57:43.64 | 3:37.56 | 259789 | 276119
12 | 61:21.45 | 4:07.47 | 276120 | 294691
13 | 65:29.17 | 4:28.19 | 294692 | 314810
14 | 69:57.36 | 0:37.35 | 314811 | 317620
15 | 70:34.71 | 7:36.39 | 317621 | 351859
Характеристики диапазона извлечения и сообщения об ошибках
Выбранный диапазон
Имя файла G:\MUSIC\MICHEL PORTAL\Michel Portal - 2002 - Dipping In Minneapolis\CD2 - Minneapolis We Insist!\Michel Portal - Minneapolis We Insist!.wav
Пиковый уровень 98.8 %
Скорость извлечения 9.7 X
Качество диапазона 99.9 %
CRC копии 67D8568E
Копирование... OK
Ошибок не произошло
AccurateRip: сводка
Трек 1 : извлечено точно (доверие 8) [FD6F9956] (AR v1)
Трек 2 : извлечено точно (доверие 8) [9939F0CA] (AR v1)
Трек 3 : извлечено точно (доверие 8) [AAAE90A0] (AR v1)
Трек 4 : извлечено точно (доверие 8) [7AFBCABE] (AR v1)
Трек 5 : извлечено точно (доверие 8) [CCC86619] (AR v1)
Трек 6 : извлечено точно (доверие 8) [7990AAF9] (AR v1)
Трек 7 : извлечено точно (доверие 8) [B46B530C] (AR v1)
Трек 8 : извлечено точно (доверие 8) [A44864A2] (AR v1)
Трек 9 : извлечено точно (доверие 8) [9B09B72B] (AR v1)
Трек 10 : извлечено точно (доверие 8) [0274980F] (AR v1)
Трек 11 : извлечено точно (доверие 8) [AF9B2621] (AR v1)
Трек 12 : извлечено точно (доверие 8) [3EC1AEC0] (AR v1)
Трек 13 : извлечено точно (доверие 8) [1F14CACF] (AR v1)
Трек 14 : извлечено точно (доверие 8) [6454695C] (AR v1)
Трек 15 : извлечено точно (доверие 8) [92B076FA] (AR v1)
Все треки извлечены точно
Конец отчёта

01. Good bye pork pie hat 07:53
02. Take the Portal 08:05
03. On Nicolet Avenue 06:14
04. Domimonk 08:48
05. Sky tinted water 04:33
06. Matourmatourmatoumalet 05:09
07. MP on the run 04:38
08. Solitudes 05:31
09. Open season 06:31
10. Introduction to Judy Garland 00:18
11. Judy Garland 03:37
12. Shopping for black shirts 04:07
13. Unspoken truth 04:28
14. Solitudes (Slight return) 00:37
15. Everything must change 07:36
Michel Portal - Minneapolis Tour Guide
 
скрытый текст
Exact Audio Copy V1.0 beta 2 from 29. April 2011
Отчёт EAC об извлечении, выполненном 22. августа 2011, 14:07
Michel Portal / Minneapolis Tour Guide
Дисковод: ASUS DRW-2014S1T Adapter: 2 ID: 0
Режим чтения : Достоверность
Использование точного потока : Да
Отключение кэша аудио : Да
Использование указателей C2 : Нет
Коррекция смещения при чтении : 6
Способность читать области Lead-in и Lead-out : Нет
Заполнение пропущенных сэмплов тишиной : Да
Удаление блоков с тишиной в начале и конце : Нет
При вычислениях CRC использовались нулевые сэмплы : Да
Интерфейс : Встроенный Win32-интерфейс для Win NT/2000
Выходной формат : Внутренние WAV-операции
Формат сэмплов : 44.100 Гц; 16 бит; стерео
TOC извлечённого CD
Трек | Старт | Длительность | Начальный сектор | Конечный сектор
---------------------------------------------------------------------
1 | 0:00.00 | 0:26.72 | 0 | 2021
2 | 0:26.72 | 8:31.40 | 2022 | 40386
3 | 8:58.37 | 0:21.43 | 40387 | 42004
4 | 9:20.05 | 6:42.45 | 42005 | 72199
5 | 16:02.50 | 6:41.60 | 72200 | 102334
6 | 22:44.35 | 0:04.07 | 102335 | 102641
7 | 22:48.42 | 21:21.62 | 102642 | 198778
8 | 44:10.29 | 0:09.25 | 198779 | 199478
9 | 44:19.54 | 8:09.06 | 199479 | 236159
10 | 52:28.60 | 0:39.06 | 236160 | 239090
11 | 53:07.66 | 8:10.29 | 239091 | 275869
12 | 61:18.20 | 0:22.70 | 275870 | 277589
13 | 61:41.15 | 1:08.27 | 277590 | 282716
14 | 62:49.42 | 1:11.45 | 282717 | 288086
15 | 64:01.12 | 2:09.08 | 288087 | 297769
16 | 66:10.20 | 0:16.10 | 297770 | 298979
17 | 66:26.30 | 7:32.35 | 298980 | 332914
Характеристики диапазона извлечения и сообщения об ошибках
Выбранный диапазон
Имя файла G:\MUSIC\MICHEL PORTAL\Michel Portal - 2002 - Dipping In Minneapolis\CD3 - Minneapolis Tour Guide\Michel Portal - Minneapolis Tour Guide.wav
Пиковый уровень 100.0 %
Скорость извлечения 6.4 X
Качество диапазона 99.9 %
CRC копии 4978CF26
Копирование... OK
Ошибок не произошло
AccurateRip: сводка
Трек 1 : извлечено точно (доверие 2) [32D7C9C0] (AR v1)
Трек 2 отсутствует в базе данных
Трек 3 : извлечено точно (доверие 2) [BB0485CB] (AR v1)
Трек 4 : извлечено точно (доверие 2) [29C1C02E] (AR v1)
Трек 5 : извлечено точно (доверие 2) [664744C1] (AR v1)
Трек 6 отсутствует в базе данных
Трек 7 : извлечено точно (доверие 2) [FD2F3B97] (AR v1)
Трек 8 : извлечено точно (доверие 2) [58895326] (AR v1)
Трек 9 : извлечено точно (доверие 2) [C920879D] (AR v1)
Трек 10 : извлечено точно (доверие 2) [997EAED3] (AR v1)
Трек 11 : извлечено точно (доверие 2) [02B450A6] (AR v1)
Трек 12 : извлечено точно (доверие 2) [F6266040] (AR v1)
Трек 13 : извлечено точно (доверие 2) [A7302B79] (AR v1)
Трек 14 : извлечено точно (доверие 2) [F73550AC] (AR v1)
Трек 15 : извлечено точно (доверие 2) [D51CD514] (AR v1)
Трек 16 : извлечено точно (доверие 2) [F6E073E8] (AR v1)
Трек 17 : извлечено точно (доверие 2) [4C10E837] (AR v1)
15 трек(и) скопированы точно
2 трек(и) не содержатся в базе AccurateRip
Некоторые треки не прошли проверку на точность
Конец отчёта

01. MP in MPLS 00:26
02. Judy Garland 08:31
03. MP in MPLS (2) 00:21
04. Sky Tinted Water 06:42
05. Matoumatourmatourmalet 06:41
06. MP in MPLS (3) 00:04
07. Rolling in Minneapolis 21:21
08. MP in MPLS (4) 00:09
09. Good Bye Pork Pie Hat 08:09
10. MP in MPLS (5) 00:39
11. Good Bye Pork Pie Hat (2) 08:10
12. MP in MPLS (6) 00:22
13. Ornette 01:08
14. Ornette (2) 01:11
15. Ornette (3) 02:09
16. MP in MPLS (7) 00:16
17. The Loon Tune 07:32
Доп. информация:
Тройной альбом, включающий в себя собственно альбом "Minneapolis", а также два концертных альбома с номерами из одноимённого турне Мишеля Порталя. На мой вкус это один из лучших альбомов этого замечательного музыканта! Рип сделан с фирменной коробки, заказанной в своё время через Amazon, так что к качеству вопросов нет.
Огромная благодарность kolebas за бережно сохранённые сканы буклетов.
Приватный:
Нет (DHT включён)
Размер:
1.27 Гб (1,364,232,962 байт) » файлов: 9
Участники:
0 раздают, 0 качают (0 участников всего)
Внешние участники:
1 раздают, 0 качают (1 участников всего) [ Обновить ]
Есть вопросы - пишите личное сообщение пользователю M0p94ok.
22:24
71
Нет комментариев. Ваш будет первым!