Поиск

(Contemporary Jazz) Michel Camilo - Rendezvous - 1993, APE (image+.cue), lossless

(Contemporary Jazz) Michel Camilo - Rendezvous - 1993, APE (image+.cue), lossless
Треклист:
Michel Camilo - Rendezvous
Жанр: Contemporary Jazz
Год выпуска диска: 1993
Аудио кодек: APE
Тип рипа: image+.cue
Битрейт аудио: lossless
Продолжительность: 49:32
Лейбл: Columbia
Трэклист:
1 Tropical Jam
2 Caravan
3 El Realejo
4 Rendezvous
5 As One
6 Rememberance
7 Blacky
8 Albertina
9 From Within
Музыканты:
Michel Camilo, piano
Anthony Jackson, contrabass guitar
Dave Weckl, drums
 
Отчёт EAC
Exact Audio Copy V0.99 prebeta 4 from 23. January 2008
Отчёт EAC об извлечении, выполненном 8. марта 2009, 12:26
Michel Camilo / Rendezvous
Дисковод: Optiarc DVD RW AD-7200A Adapter: 3 ID: 1
Режим чтения : Достоверность
Использование точного потока : Да
Отключение кэша аудио : Да
Использование указателей C2 : Нет
Коррекция смещения при чтении : 48
Способность читать области Lead-in и Lead-out : Нет
Заполнение пропущенных сэмплов тишиной : Да
Удаление блоков с тишиной в начале и конце : Нет
При вычислениях CRC использовались нулевые сэмплы : Да
Интерфейс : Установленный внешний ASPI-интерфейс
Выходной формат : Внутренние WAV-операции
Формат сэмплов : 44.100 Гц; 16 бит; стерео
TOC извлечённого CD
Трек | Старт | Длительность | Начальный сектор | Конечный сектор
---------------------------------------------------------------------
1 | 0:00.00 | 3:27.69 | 0 | 15593
2 | 3:27.69 | 5:38.20 | 15594 | 40963
3 | 9:06.14 | 4:48.35 | 40964 | 62598
4 | 13:54.49 | 5:06.52 | 62599 | 85600
5 | 19:01.26 | 7:38.24 | 85601 | 119974
6 | 26:39.50 | 5:10.12 | 119975 | 143236
7 | 31:49.62 | 5:04.69 | 143237 | 166105
8 | 36:54.56 | 4:36.62 | 166106 | 186867
9 | 41:31.43 | 8:01.18 | 186868 | 222960
Характеристики диапазона извлечения и сообщения об ошибках
Выбранный диапазон
Имя файла E:\Up-Down\Michel Camilo - Rendezvous\Michel Camilo - Rendezvous.wav
Пиковый уровень 98.1 %
Качество диапазона 100.0 %
CRC копии 477C072E
Копирование... OK
Ошибок не произошло
Конец отчёта
 
Tau Analyzer
По всем вопросам пишите личное сообщение пользователю M0p94ok.
05:14
190
Нет комментариев. Ваш будет первым!