Поиск

(Contemporary Jazz / Latin Jazz / Fusion / MPB) Egberto Gismonti - Коллекция 1970-1997, FLAC (tracks+.cue), lossless (11 альбомов, 11 CD) (feat. Nana Vasconcelos, Lithuanian State Symphony Orchestra)

(Contemporary Jazz / Latin Jazz / Fusion / MPB) Egberto Gismonti - Коллекция 1970-1997, FLAC (tracks+.cue), lossless (11 альбомов, 11 CD) (feat. Nana Vasconcelos, Lithuanian State Symphony Orchestra)
Треклист:
Egberto Gismonti - Коллекция (11 альбомов)
Жанр: Contemporary Jazz / Latin Jazz / Fusion / MPB
Год издания: 1970-1997
Страна: Brazil
Аудиокодек: FLAC (*.flac)
Тип рипа: tracks+.cue
Битрейт аудио: lossless
Продолжительность: 8:16:36
 
1970 - Sonho 70 [flac]
Egberto Gismonti - Sonho 70
Жанр: Avant-Garde Jazz / World Music
Страна-производитель диска: Brazil
Год издания: 1970 (2002)
Издатель (лейбл): Universal
Номер по каталогу: 838 290-2
Продолжительность: 31:57
Источник (релизер): what.cd (rominpereira)
Наличие сканов в содержимом раздачи: да
Треклист:
1. Janela de Ouro 4:39
2. Parque Laje 2:18
3. Ciclone 2:35
4. Indi 4:26
5. Sonho 2:25
6. O Mercador de Serpentes 2:52
7. Lendas 3:00
8. Pêndulo 4:23
9. Lírica № 1 5:19
 
Лог создания рипа
X Lossless Decoder version 20130127 (142.3)
XLD extraction logfile from 2013-03-17 13:53:27 -0300
Egberto Gismonti / Sonho 70
Used drive : HL-DT-ST DVDRW GS23N (revision SB07)
Media type : CD-Recordable
Ripper mode : XLD Secure Ripper
Disable audio cache : OK for the drive with a cache less than 1375KiB
Make use of C2 pointers : NO
Read offset correction : 667
Max retry count : 100
Gap status : Analyzed, Appended (except HTOA)
TOC of the extracted CD
Track | Start | Length | Start sector | End sector
---------------------------------------------------------
1 | 00:00:00 | 04:38:57 | 0 | 20906
2 | 04:38:57 | 02:18:36 | 20907 | 31292
3 | 06:57:18 | 02:35:22 | 31293 | 42939
4 | 09:32:40 | 04:26:14 | 42940 | 62903
5 | 13:58:54 | 02:24:70 | 62904 | 73773
6 | 16:23:49 | 02:51:57 | 73774 | 86655
7 | 19:15:31 | 03:00:17 | 86656 | 100172
8 | 22:15:48 | 04:22:52 | 100173 | 119874
9 | 26:38:25 | 05:19:23 | 119875 | 143822
AccurateRip Summary
Disc not found in AccurateRip DB.
All Tracks
Album gain : -4.85 dB
Peak : 1.000000
Statistics
Read error : 0
Jitter error (maybe fixed) : 0
Retry sector count : 0
Damaged sector count : 0
Track 01
Filename : /Users/romulopereira/Documents/Egberto Gismonti - Sonho 70 (1970) [FLAC]/01 Janela de Ouro.flac
Pre-gap length : 00:02:00
Track gain : -3.37 dB
Peak : 1.000000
CRC32 hash (test run) : D7F0C6F7
CRC32 hash : D7F0C6F7
CRC32 hash (skip zero) : AEF1B2A0
AccurateRip v1 signature : 23687B31
AccurateRip v2 signature : 3CA29122
->Track not present in AccurateRip database.
Statistics
Read error : 0
Jitter error (maybe fixed) : 0
Retry sector count : 0
Damaged sector count : 0
Track 02
Filename : /Users/romulopereira/Documents/Egberto Gismonti - Sonho 70 (1970) [FLAC]/02 Parque Laje.flac
Track gain : -3.11 dB
Peak : 0.805176
CRC32 hash (test run) : 3F0B6289
CRC32 hash : 3F0B6289
CRC32 hash (skip zero) : A991EC29
AccurateRip v1 signature : 127CAFB5
AccurateRip v2 signature : 5EB04F4B
->Track not present in AccurateRip database.
Statistics
Read error : 0
Jitter error (maybe fixed) : 0
Retry sector count : 0
Damaged sector count : 0
Track 03
Filename : /Users/romulopereira/Documents/Egberto Gismonti - Sonho 70 (1970) [FLAC]/03 Ciclone.flac
Track gain : -5.18 dB
Peak : 1.000000
CRC32 hash (test run) : 75903506
CRC32 hash : 75903506
CRC32 hash (skip zero) : 55A22552
AccurateRip v1 signature : 3439E2E6
AccurateRip v2 signature : 894414CE
->Track not present in AccurateRip database.
Statistics
Read error : 0
Jitter error (maybe fixed) : 0
Retry sector count : 0
Damaged sector count : 0
Track 04
Filename : /Users/romulopereira/Documents/Egberto Gismonti - Sonho 70 (1970) [FLAC]/04 Indi.flac
Track gain : -5.07 dB
Peak : 1.000000
CRC32 hash (test run) : D7FF3544
CRC32 hash : D7FF3544
CRC32 hash (skip zero) : 145E2028
AccurateRip v1 signature : CF55FDC1
AccurateRip v2 signature : C72729D3
->Track not present in AccurateRip database.
Statistics
Read error : 0
Jitter error (maybe fixed) : 0
Retry sector count : 0
Damaged sector count : 0
Track 05
Filename : /Users/romulopereira/Documents/Egberto Gismonti - Sonho 70 (1970) [FLAC]/05 Sonho.flac
Track gain : -5.45 dB
Peak : 1.000000
CRC32 hash (test run) : DDA1FEBA
CRC32 hash : DDA1FEBA
CRC32 hash (skip zero) : BE6F85E5
AccurateRip v1 signature : 9AF88ED2
AccurateRip v2 signature : AE61674F
->Track not present in AccurateRip database.
Statistics
Read error : 0
Jitter error (maybe fixed) : 0
Retry sector count : 0
Damaged sector count : 0
Track 06
Filename : /Users/romulopereira/Documents/Egberto Gismonti - Sonho 70 (1970) [FLAC]/06 O Mercador de Serpentes.flac
Track gain : -5.61 dB
Peak : 1.000000
CRC32 hash (test run) : C9A11D56
CRC32 hash : C9A11D56
CRC32 hash (skip zero) : F1B05FD0
AccurateRip v1 signature : 0B5F7F00
AccurateRip v2 signature : F2C1BB8E
->Track not present in AccurateRip database.
Statistics
Read error : 0
Jitter error (maybe fixed) : 0
Retry sector count : 0
Damaged sector count : 0
Track 07
Filename : /Users/romulopereira/Documents/Egberto Gismonti - Sonho 70 (1970) [FLAC]/07 Lendas.flac
Track gain : -3.35 dB
Peak : 0.932617
CRC32 hash (test run) : 7F315DA9
CRC32 hash : 7F315DA9
CRC32 hash (skip zero) : 8C48182D
AccurateRip v1 signature : 422FD6E2
AccurateRip v2 signature : 1F88EC39
->Track not present in AccurateRip database.
Statistics
Read error : 0
Jitter error (maybe fixed) : 0
Retry sector count : 0
Damaged sector count : 0
Track 08
Filename : /Users/romulopereira/Documents/Egberto Gismonti - Sonho 70 (1970) [FLAC]/08 PГЄndulo.flac
Track gain : -5.52 dB
Peak : 1.000000
CRC32 hash (test run) : 4BA0C5DF
CRC32 hash : 4BA0C5DF
CRC32 hash (skip zero) : 78A8572A
AccurateRip v1 signature : 097E3941
AccurateRip v2 signature : 6E8351B9
->Track not present in AccurateRip database.
Statistics
Read error : 0
Jitter error (maybe fixed) : 0
Retry sector count : 0
Damaged sector count : 0
Track 09
Filename : /Users/romulopereira/Documents/Egberto Gismonti - Sonho 70 (1970) [FLAC]/09 LГ­rica NВє1 .flac
Track gain : -5.12 dB
Peak : 1.000000
CRC32 hash (test run) : F46D148A
CRC32 hash : F46D148A
CRC32 hash (skip zero) : 6EDB4F55
AccurateRip v1 signature : CD242E57
AccurateRip v2 signature : 3CC9C2C7
->Track not present in AccurateRip database.
Statistics
Read error : 0
Jitter error (maybe fixed) : 0
Retry sector count : 0
Damaged sector count : 0
No errors occurred
End of status report
 
Содержание индексной карты (.CUE)
REM GENRE "Avant-Garde Jazz / World Music"
REM DATE 1970
REM DISCID 6F077D09
REM COMMENT "X Lossless Decoder version 20130127 (142.3)"
PERFORMER "Egberto Gismonti"
TITLE "Sonho 70"
FILE "01 - Janela de Ouro.wav" WAVE
TRACK 01 AUDIO
TITLE "Janela de Ouro"
INDEX 01 00:00:00
FILE "02 - Parque Laje.wav" WAVE
TRACK 02 AUDIO
TITLE "Parque Laje"
INDEX 01 00:00:00
FILE "03 - Ciclone.wav" WAVE
TRACK 03 AUDIO
TITLE "Ciclone"
INDEX 01 00:00:00
FILE "04 - Indi.wav" WAVE
TRACK 04 AUDIO
TITLE "Indi"
INDEX 01 00:00:00
FILE "05 - Sonho.wav" WAVE
TRACK 05 AUDIO
TITLE "Sonho"
INDEX 01 00:00:00
FILE "06 - O Mercador de Serpentes.wav" WAVE
TRACK 06 AUDIO
TITLE "O Mercador de Serpentes"
INDEX 01 00:00:00
FILE "07 - Lendas.wav" WAVE
TRACK 07 AUDIO
TITLE "Lendas"
INDEX 01 00:00:00
FILE "08 - Pendulo.wav" WAVE
TRACK 08 AUDIO
TITLE "Pendulo"
INDEX 01 00:00:00
FILE "09 - Lirica No. 1.wav" WAVE
TRACK 09 AUDIO
TITLE "Lirica No. 1"
INDEX 01 00:00:00
 
Скриншот спектра частот
 
Состав
Egberto Gismonti — performer
Dulce Nunes — vocals
 
1970 - Orfeo Novo [flac]
Egberto Gismonti - Orfeo Novo
Жанр: Latin Jazz / Fusion / MPB
Страна-производитель диска: Switzerland
Год издания: 1970 (2008)
Издатель (лейбл): Take 5
Номер по каталогу: TAKE 35010
Продолжительность: 37:35
Источник (релизер): what.cd (fulanosicrano)
Наличие сканов в содержимом раздачи: сканы винила (Corona 015 293)
Треклист:
1. Indi 4:26
2. O Sonho 7:05
3. Parque Laje 7:58
4. Salvador 5:10
5. Three Portraits for Guitar and Flute:
a) Retratos I 2:01
b) Retratos II 2:25
c) Retratos III 1:56
6. Consolação, Berimbau 3:09
7. Lendas 3:25
 
Лог создания рипа
Exact Audio Copy V1.0 beta 3 from 29. August 2011
EAC extraction logfile from 16. January 2013, 21:35
Egberto Gismonti / Orfeo Novo
Used drive : HL-DT-STDVDRWBD CT40N Adapter: 0 ID: 1
Read mode : Secure
Utilize accurate stream : Yes
Defeat audio cache : Yes
Make use of C2 pointers : No
Read offset correction : 102
Overread into Lead-In and Lead-Out : No
Fill up missing offset samples with silence : Yes
Delete leading and trailing silent blocks : No
Null samples used in CRC calculations : Yes
Used interface : Native Win32 interface for Win NT & 2000
Gap handling : Appended to previous track
Used output format : User Defined Encoder
Selected bitrate : 1024 kBit/s
Quality : High
Add ID3 tag : No
Command line compressor : C:\Program Files (x86)\Exact Audio Copy\Flac\flac.exe
Additional command line options : -8 -V -T "ARTIST=%artist%" -T "TITLE=%title%" -T "ALBUM=%albumtitle%" -T "DATE=%year%" -T "TRACKNUMBER=%tracknr%" -T "GENRE=%genre%" -T "PERFORMER=%albuminterpret%" -T "COMPOSER=%composer%" %haslyrics%--tag-from-file=LYRICS="%lyricsfile%"%haslyrics% -T "ALBUMARTIST=%albumartist%" -T "DISCNUMBER=%cdnumber%" -T "TOTALDISCS=%totalcds%" -T "TOTALTRACKS=%numtracks%" -T "COMMENT=%comment%" %source% -o %dest%
TOC of the extracted CD
Track | Start | Length | Start sector | End sector
---------------------------------------------------------
1 | 0:00.00 | 4:25.41 | 0 | 19915
2 | 4:25.41 | 7:04.56 | 19916 | 51771
3 | 11:30.22 | 7:57.38 | 51772 | 87584
4 | 19:27.60 | 5:09.73 | 87585 | 110832
5 | 24:37.58 | 2:01.03 | 110833 | 119910
6 | 26:38.61 | 2:25.19 | 119911 | 130804
7 | 29:04.05 | 1:55.69 | 130805 | 139498
8 | 30:59.74 | 3:08.73 | 139499 | 153671
9 | 34:08.72 | 3:24.61 | 153672 | 169032
Track 1
Filename C:\EAC Rips\01 Indi.wav
Pre-gap length 0:00:02.00
Peak level 96.6 %
Extraction speed 2.0 X
Track quality 99.9 %
Test CRC 52ECC766
Copy CRC 52ECC766
Track not present in AccurateRip database
Copy OK
Track 2
Filename C:\EAC Rips\02 O Sonho.wav
Peak level 90.7 %
Extraction speed 3.4 X
Track quality 100.0 %
Test CRC 82762471
Copy CRC 82762471
Track not present in AccurateRip database
Copy OK
Track 3
Filename C:\EAC Rips\03 Parque Laje.wav
Peak level 96.6 %
Extraction speed 3.9 X
Track quality 100.0 %
Test CRC BB5BA68C
Copy CRC BB5BA68C
Track not present in AccurateRip database
Copy OK
Track 4
Filename C:\EAC Rips\04 Salvador.wav
Peak level 96.6 %
Extraction speed 4.0 X
Track quality 100.0 %
Test CRC EB8F4A49
Copy CRC EB8F4A49
Track not present in AccurateRip database
Copy OK
Track 5
Filename C:\EAC Rips\05 Retrato I.wav
Peak level 74.6 %
Extraction speed 3.3 X
Track quality 100.0 %
Test CRC 2E4EFCE6
Copy CRC 2E4EFCE6
Track not present in AccurateRip database
Copy OK
Track 6
Filename C:\EAC Rips\06 Retrato II.wav
Peak level 96.6 %
Extraction speed 3.7 X
Track quality 100.0 %
Test CRC 8B1FCFE3
Copy CRC 8B1FCFE3
Track not present in AccurateRip database
Copy OK
Track 7
Filename C:\EAC Rips\07 Retrato III.wav
Peak level 96.6 %
Extraction speed 3.5 X
Track quality 100.0 %
Test CRC 49D0DDE9
Copy CRC 49D0DDE9
Track not present in AccurateRip database
Copy OK
Track 8
Filename C:\EAC Rips\08 Consolação - Berimbau.wav
Peak level 90.9 %
Extraction speed 4.0 X
Track quality 100.0 %
Test CRC 8DF011B0
Copy CRC 8DF011B0
Track not present in AccurateRip database
Copy OK
Track 9
Filename C:\EAC Rips\09 Lendas.wav
Peak level 78.7 %
Extraction speed 4.2 X
Track quality 100.0 %
Test CRC F155E352
Copy CRC F155E352
Track not present in AccurateRip database
Copy OK
None of the tracks are present in the AccurateRip database
No errors occurred
End of status report
---- CUETools DB Plugin V2.1.3
[CTDB TOCID: 15evzDVRq0EHbJ08j5R0dUImcOI-] disk not present in database, Submit result: 15evzDVRq0EHbJ08j5R0dUImcOI- has been uploaded
==== Log checksum FEB8EED4565178C0C9B3CDB8855399E67E52BB3316856C1B4228FA90EFC9FD99 ====
 
Содержание индексной карты (.CUE)
REM GENRE "Latin Jazz / Fusion / MPB"
REM DATE 1970
REM DISCID 7808CD09
REM COMMENT "ExactAudioCopy v1.0b3"
PERFORMER "Egberto Gismonti"
TITLE "Orfeo Novo"
FILE "01 - Indi.wav" WAVE
TRACK 01 AUDIO
TITLE "Indi"
PERFORMER "Egberto Gismonti"
INDEX 01 00:00:00
FILE "02 - O Sonho.wav" WAVE
TRACK 02 AUDIO
TITLE "O Sonho"
PERFORMER "Egberto Gismonti"
INDEX 01 00:00:00
FILE "03 - Parque Laje.wav" WAVE
TRACK 03 AUDIO
TITLE "Parque Laje"
PERFORMER "Egberto Gismonti"
INDEX 01 00:00:00
FILE "04 - Salvador.wav" WAVE
TRACK 04 AUDIO
TITLE "Salvador"
PERFORMER "Egberto Gismonti"
INDEX 01 00:00:00
FILE "05 - Retratos I.wav" WAVE
TRACK 05 AUDIO
TITLE "Three Portraits for Guitar and Flute: Retratos I"
PERFORMER "Egberto Gismonti"
INDEX 01 00:00:00
FILE "06 - Retratos II.wav" WAVE
TRACK 06 AUDIO
TITLE "Three Portraits for Guitar and Flute: Retratos II"
PERFORMER "Egberto Gismonti"
INDEX 01 00:00:00
FILE "07 - Retratos III.wav" WAVE
TRACK 07 AUDIO
TITLE "Three Portraits for Guitar and Flute: Retratos III"
PERFORMER "Egberto Gismonti"
INDEX 01 00:00:00
FILE "08 - Consolacao, Berimbau.wav" WAVE
TRACK 08 AUDIO
TITLE "Consolacao, Berimbau"
PERFORMER "Egberto Gismonti"
INDEX 01 00:00:00
FILE "09 - Lendas.wav" WAVE
TRACK 09 AUDIO
TITLE "Lendas"
PERFORMER "Egberto Gismonti"
INDEX 01 00:00:00
 
Скриншот спектра частот
 
Состав
Egberto Gismonti — guitar, piano, vocal
Dulce Nunes — vocal
Bernard Wystraete — altoflute & flute in g
J.F. Jenny-Clark — bass
 
1972 - Água & Vinho [flac]
Egberto Gismonti - Água & Vinho
Жанр: Contemporary Jazz / Latin Jazz
Страна-производитель диска: Brazil
Год издания: 1972 (2003)
Издатель (лейбл): EMI
Номер по каталогу: 596960 2 (из трехдискового бокс-сета «Brasil de a A-Z: Egberto Gismonti»)
Продолжительность: 31:01
Источник (релизер): what.cd (pod)
Наличие сканов в содержимом раздачи: сканы винила
Треклист:
1. Ano Zero 3:19
2. Federico 3:30
3. Janela de Ouro (A Traição das Esmeraldas) 3:43
4. Vila Rica 1720 1:54
5. Pr'um Samba 3:06
6. Água & Vinho 2:21
7. Volante 4:11
8. Eterna 3:54
9. Tango 3:07
10. Mulhé Rendeira 1:56
 
Лог создания рипа
Exact Audio Copy V1.0 beta 3 from 29. August 2011
EAC extraction logfile from 23. July 2013, 14:03
Egberto Gismonti / Agua & Vinho
Used drive : TSSTcorpCDDVDW SE-S084C Adapter: 1 ID: 0
Read mode : Secure
Utilize accurate stream : Yes
Defeat audio cache : Yes
Make use of C2 pointers : No
Read offset correction : 6
Overread into Lead-In and Lead-Out : No
Fill up missing offset samples with silence : Yes
Delete leading and trailing silent blocks : No
Null samples used in CRC calculations : Yes
Used interface : Native Win32 interface for Win NT & 2000
Gap handling : Appended to previous track
Used output format : User Defined Encoder
Selected bitrate : 768 kBit/s
Quality : High
Add ID3 tag : No
Command line compressor : C:\Program Files\Exact Audio Copy\FLAC\FLAC.EXE
Additional command line options : -6 -V -T "ARTIST=%artist%" -T "TITLE=%title%" -T "ALBUM=%albumtitle%" -T "DATE=%year%" -T "TRACKNUMBER=%tracknr%" -T "GENRE=%genre%" -T "COMMENT=%comment%" %hascover%--picture="%coverfile%"%hascover% %source% -o %dest%
TOC of the extracted CD
Track | Start | Length | Start sector | End sector
---------------------------------------------------------
1 | 0:00.00 | 3:19.14 | 0 | 14938
2 | 3:19.14 | 3:30.01 | 14939 | 30689
3 | 6:49.15 | 3:43.00 | 30690 | 47414
4 | 10:32.15 | 1:53.54 | 47415 | 55943
5 | 12:25.69 | 3:05.73 | 55944 | 69891
6 | 15:31.67 | 2:20.55 | 69892 | 80446
7 | 17:52.47 | 4:11.04 | 80447 | 99275
8 | 22:03.51 | 3:54.34 | 99276 | 116859
9 | 25:58.10 | 3:07.19 | 116860 | 130903
10 | 29:05.29 | 1:56.24 | 130904 | 139627
11 | 33:33.53 | 40:24.22 | 151028 | 332849
Track 1
Filename C:\01 - Ano Zero.wav
Pre-gap length 0:00:02.00
Peak level 96.6 %
Extraction speed 1.8 X
Track quality 99.8 %
Test CRC A3AD6FB5
Copy CRC A3AD6FB5
Cannot be verified as accurate (confidence 1) [0ACAE17A], AccurateRip returned [AAF64985] (AR v2)
Copy OK
Track 2
Filename C:\02 - Federico.wav
Pre-gap length 0:00:01.48
Peak level 100.0 %
Extraction speed 2.9 X
Track quality 100.0 %
Test CRC 18A7BCB4
Copy CRC 18A7BCB4
Track not present in AccurateRip database
Copy OK
Track 3
Filename C:\03 - Janela de Ouro.wav
Pre-gap length 0:00:01.89
Peak level 100.0 %
Extraction speed 3.1 X
Track quality 100.0 %
Test CRC 730A614D
Copy CRC 730A614D
Track not present in AccurateRip database
Copy OK
Track 4
Filename C:\04 - Vila Rica 1720.wav
Pre-gap length 0:00:01.81
Peak level 95.7 %
Extraction speed 2.8 X
Track quality 100.0 %
Test CRC 21733BD4
Copy CRC 21733BD4
Track not present in AccurateRip database
Copy OK
Track 5
Filename C:\05 - Prum Samba.wav
Pre-gap length 0:00:02.22
Peak level 85.2 %
Extraction speed 3.3 X
Track quality 100.0 %
Test CRC D9D0FBEE
Copy CRC D9D0FBEE
Track not present in AccurateRip database
Copy OK
Track 6
Filename C:\06 - Agua e Vinho.wav
Pre-gap length 0:00:01.74
Peak level 84.5 %
Extraction speed 2.4 X
Track quality 99.9 %
Test CRC 457AA907
Copy CRC 457AA907
Track not present in AccurateRip database
Copy OK
Track 7
Filename C:\07 - Volante.wav
Pre-gap length 0:00:03.10
Peak level 100.0 %
Extraction speed 3.8 X
Track quality 100.0 %
Test CRC 4DDC560D
Copy CRC 4DDC560D
Track not present in AccurateRip database
Copy OK
Track 8
Filename C:\08 - Eterna.wav
Pre-gap length 0:00:02.36
Peak level 69.0 %
Extraction speed 3.9 X
Track quality 100.0 %
Test CRC F8890B3A
Copy CRC F8890B3A
Track not present in AccurateRip database
Copy OK
Track 9
Filename C:\09 - Tango.wav
Pre-gap length 0:00:02.05
Peak level 100.0 %
Extraction speed 3.1 X
Track quality 99.9 %
Test CRC A128DB10
Copy CRC A128DB10
Track not present in AccurateRip database
Copy OK
Track 10
Filename C:\10 - Mulhe Rendeira.wav
Pre-gap length 0:00:01.81
Peak level 100.0 %
Extraction speed 3.6 X
Track quality 100.0 %
Test CRC 0D7DAF9C
Copy CRC 0D7DAF9C
Track not present in AccurateRip database
Copy OK
1 track(s) could not be verified as accurate
9 track(s) not present in the AccurateRip database
No tracks could be verified as accurate
You may have a different pressing from the one(s) in the database
No errors occurred
End of status report
==== Log checksum DD2AA5DBC232A0698E2AE61CEFEC5B54BF8FCE75E5B07CCA982BE23EB36C9E36 ====
 
Содержание индексной карты (.CUE)
REM GENRE "Contemporary Jazz / Latin Jazz"
REM DATE 1972
REM DISCID 7711560B
REM COMMENT "ExactAudioCopy v1.0b3"
PERFORMER "Egberto Gismonti"
FILE "01 - Ano Zero.wav" WAVE
TRACK 01 AUDIO
TITLE "Ano Zero"
PERFORMER "Egberto Gismonti"
INDEX 01 00:00:00
TRACK 02 AUDIO
TITLE "Federico"
PERFORMER "Egberto Gismonti"
INDEX 00 03:17:53
FILE "02 - Federico.wav" WAVE
INDEX 01 00:00:00
TRACK 03 AUDIO
TITLE "Janela de Ouro"
PERFORMER "Egberto Gismonti"
INDEX 00 03:28:09
FILE "03 - Janela de Ouro.wav" WAVE
INDEX 01 00:00:00
TRACK 04 AUDIO
TITLE "Vila Rica 1720"
PERFORMER "Egberto Gismonti"
INDEX 00 03:41:14
FILE "04 - Vila Rica 1720.wav" WAVE
INDEX 01 00:00:00
TRACK 05 AUDIO
TITLE "Pr'um Samba"
PERFORMER "Egberto Gismonti"
INDEX 00 01:51:37
FILE "05 - Prum Samba.wav" WAVE
INDEX 01 00:00:00
TRACK 06 AUDIO
TITLE "Agua & Vinho"
PERFORMER "Egberto Gismonti"
INDEX 00 03:04:17
FILE "06 - Agua & Vinho.wav" WAVE
INDEX 01 00:00:00
TRACK 07 AUDIO
TITLE "Volante"
PERFORMER "Egberto Gismonti"
INDEX 00 02:17:47
FILE "07 - Volante.wav" WAVE
INDEX 01 00:00:00
TRACK 08 AUDIO
TITLE "Eterna"
PERFORMER "Egberto Gismonti"
INDEX 00 04:08:52
FILE "08 - Eterna.wav" WAVE
INDEX 01 00:00:00
TRACK 09 AUDIO
TITLE "Tango"
PERFORMER "Egberto Gismonti"
INDEX 00 03:52:30
FILE "09 - Tango.wav" WAVE
INDEX 01 00:00:00
TRACK 10 AUDIO
TITLE "Mulhe Rendeira"
PERFORMER "Egberto Gismonti"
INDEX 00 03:05:33
FILE "10 - Mulhe Rendeira.wav" WAVE
INDEX 01 00:00:00
 
Скриншот спектра частот
 
Состав
Egberto Gismonti — voz (1)-(7), (9), (10); piano (1), (3), (4), (6), (7), (9), (10); piano eléctrico (3), (9); órgano (2), (4), (9); guitarra acústica (2), (5), (8); bajo (4); batería (4); percusión (1), (4), (7), (10)
Dulce Bressane — voz (1), (6), (10)
Novelli — bajo (1)-(3), (5), (7), (9), (10)
João Palma — batería (1)
Orquesta de cuerdas dirigida por Mário Tavares — (1), (6), (7), (10)
Piry Reis — guitarra acústica (2)
Peter Dauelsberg — violonchelo (2), (8)
Roberto Silva — batería (2), (3), (9); percusión (5)
Paulo Moura — saxo (8)-(10); clarinete (8)
João Palma — batería (10)
 
1973 - Árvore (Egberto Gismonti, Luzes da Ribalta) [flac]
Egberto Gismonti - Árvore
Жанр: Contemporary Jazz / Latin Jazz
Страна-производитель диска: Germany
Год издания: 1973 (1996)
Издатель (лейбл): Carmo / ECM
Номер по каталогу: 849 076-2
Продолжительность: 32:11
Источник (релизер): what.cd (paolozzi)
Наличие сканов в содержимом раздачи: да
Треклист:
1. Luzes Da Ribalta 2:57
2. Memória E Fado 3:58
3. Academia De Dança: (a) Dança Dos Homens, (b) Dança Das Sombras 4:24
4. Tango 4:27
5. Encontro No Bar 2:54
6. Adágio 4:51
7. Variações Sobre Um Tema De Léo Brouwer 4:18
8. Salvador 4:22
 
Лог создания рипа
Exact Audio Copy V0.99 prebeta 5 from 4. May 2009
EAC extraction logfile from 30. November 2009, 16:55
Egberto Gismonti / Egberto Gismonti
Used drive : TSSTcorpCD/DVDW SH-S182F Adapter: 0 ID: 0
Read mode : Secure
Utilize accurate stream : Yes
Defeat audio cache : Yes
Make use of C2 pointers : No
Read offset correction : 6
Overread into Lead-In and Lead-Out : No
Fill up missing offset samples with silence : Yes
Delete leading and trailing silent blocks : No
Null samples used in CRC calculations : Yes
Used interface : Native Win32 interface for Win NT & 2000
Gap handling : Appended to previous track
Used output format : Internal WAV Routines
Sample format : 44.100 Hz; 16 Bit; Stereo
TOC of the extracted CD
Track | Start | Length | Start sector | End sector
---------------------------------------------------------
1 | 0:00.00 | 2:56.48 | 0 | 13247
2 | 2:56.48 | 3:58.22 | 13248 | 31119
3 | 6:54.70 | 4:23.43 | 31120 | 50887
4 | 11:18.38 | 4:27.12 | 50888 | 70924
5 | 15:45.50 | 2:53.60 | 70925 | 83959
6 | 18:39.35 | 4:51.00 | 83960 | 105784
7 | 23:30.35 | 4:18.33 | 105785 | 125167
8 | 27:48.68 | 4:22.32 | 125168 | 144849
Track 1
Filename C:\01 - Luzes Da Ribalta.wav
Pre-gap length 0:00:02.00
Peak level 53.6 %
Track quality 99.9 %
Test CRC BEEC10C0
Copy CRC BEEC10C0
Track not present in AccurateRip database
Copy OK
Track 2
Filename C:\02 - Memoria E Fado.wav
Peak level 48.6 %
Track quality 100.0 %
Test CRC B500047F
Copy CRC B500047F
Track not present in AccurateRip database
Copy OK
Track 3
Filename C:\03 - Academia De Danca.wav
Peak level 48.3 %
Track quality 100.0 %
Test CRC AD1E781D
Copy CRC AD1E781D
Track not present in AccurateRip database
Copy OK
Track 4
Filename C:\04 - Tango.wav
Peak level 61.3 %
Track quality 100.0 %
Test CRC 21908DBC
Copy CRC 21908DBC
Track not present in AccurateRip database
Copy OK
Track 5
Filename C:\05 - Encontro No Bar.wav
Pre-gap length 0:00:03.33
Peak level 49.2 %
Track quality 100.0 %
Test CRC 91E14113
Copy CRC 91E14113
Track not present in AccurateRip database
Copy OK
Track 6
Filename C:\06 - Adagio.wav
Peak level 38.0 %
Track quality 99.8 %
Test CRC 60D24BC1
Copy CRC 60D24BC1
Track not present in AccurateRip database
Copy OK
Track 7
Filename C:\07 - Variacoes Sobre Um Tema De Leo Brouwer.wav
Peak level 60.7 %
Track quality 100.0 %
Test CRC 67C29451
Copy CRC 67C29451
Track not present in AccurateRip database
Copy OK
Track 8
Filename C:\08 - Salvador.wav
Peak level 81.3 %
Track quality 100.0 %
Test CRC D9A0EE99
Copy CRC D9A0EE99
Track not present in AccurateRip database
Copy OK
None of the tracks are present in the AccurateRip database
No errors occurred
End of status report
 
Содержание индексной карты (.CUE)
REM GENRE "Contemporary Jazz / Latin Jazz "
REM DATE 1973
REM DISCID 5A078B08
REM COMMENT "ExactAudioCopy v0.99pb5"
PERFORMER "Egberto Gismonti"
TITLE "Egberto Gismonti"
FILE "01 - Luzes Da Ribalta.wav" WAVE
TRACK 01 AUDIO
TITLE "Luzes Da Ribalta"
PERFORMER "Egberto Gismonti"
INDEX 01 00:00:00
FILE "02 - Memoria E Fado.wav" WAVE
TRACK 02 AUDIO
TITLE "Memoria E Fado"
PERFORMER "Egberto Gismonti"
INDEX 01 00:00:00
FILE "03 - Academia De Danca.wav" WAVE
TRACK 03 AUDIO
TITLE "Academia De Danca"
PERFORMER "Egberto Gismonti"
INDEX 01 00:00:00
INDEX 02 01:28:05
FILE "04 - Tango.wav" WAVE
TRACK 04 AUDIO
TITLE "Tango"
PERFORMER "Egberto Gismonti"
INDEX 01 00:00:00
TRACK 05 AUDIO
TITLE "Encontro No Bar"
PERFORMER "Egberto Gismonti"
INDEX 00 04:23:62
FILE "05 - Encontro No Bar.wav" WAVE
INDEX 01 00:00:00
FILE "06 - Adagio.wav" WAVE
TRACK 06 AUDIO
TITLE "Adagio"
PERFORMER "Egberto Gismonti"
INDEX 01 00:00:00
FILE "07 - Variacoes Sobre Um Tema De Leo Brouwer.wav" WAVE
TRACK 07 AUDIO
TITLE "Variacoes Sobre Um Tema De Leo Brouwer"
PERFORMER "Egberto Gismonti"
INDEX 01 00:00:00
FILE "08 - Salvador.wav" WAVE
TRACK 08 AUDIO
TITLE "Salvador"
PERFORMER "Egberto Gismonti"
INDEX 01 00:00:00
 
Скриншот спектра частот
 
Состав
Egberto Gismonti — arranged by, conductor (choir), piano, guitars, flute, wood flutes, percussion, voice
Edson Lobo, Novelli — bass
Giorgio Bariola, Marcio Eymard, Malard, Gerhard Peter Dauelsberg, Watson Clis — cello
Bernadete, Henrique, Olga, Pedro Paulo, Regis, Sidney, Vera — choir
Mario Tavares — conductor (orchestra)
Juan Capobianco, Paul Kern — double bass
Ténorio Jr. — electric piano
Ion Muniz — flute
Paulo Moura — saxophone
Arlindo Penteado, Geza Kiszely, Maria Léa Magalhães, Murillo Da Silva Loures — viola
Aizik Geller, Alfredo Vidal, Alvaro Vetere, Andrea Osório, André Charles Guetta, Frantisek Bartik, Giancarlo Pareschi, Jerzy Milewsky, José Dias De Lana, José Alves Da Silva, João Daltro de Almeida, Marcello Pompeu Filho, Otávio Miranda Ilha, Ricardo Wagner, Robert Arnaud, Vigíilio Arraes Filho — violin
 
1976 - Corações Futuristas [flac]
Egberto Gismonti - Corações Futuristas
Жанр: Progressive Rock / Chamber Jazz / Chamber Rock / Avant-Garde Jazz / Modern Creative
Страна-производитель диска: Brazil
Год издания: 1976 (2001)
Издатель (лейбл): EMI-Odeon
Номер по каталогу: 3647485562
Продолжительность: 41:44
Источник (релизер): what.cd (MrHudson)
Наличие сканов в содержимом раздачи: сканы винила
Треклист:
1. Dança das Cabeças 8:29
2. Café 4:47
3. Carmo 4:47
4. Altura do Sol 1:15
5. Polichinelo 1:36
6. Trem Noturno 7:33
7. Ano Zero 6:49
8. Baião do Acordar 6:28
 
Лог создания рипа
X Lossless Decoder version 20130602 (143.2)
XLD extraction logfile from 2013-07-20 14:56:32 +0200
Egberto Gismonti / Corações Futuristas
Used drive : MATSHITA DVD-R UJ-898 (revision HC10)
Media type : Pressed CD
Ripper mode : XLD Secure Ripper
Disable audio cache : OK for the drive with a cache less than 1375KiB
Make use of C2 pointers : NO
Read offset correction : 102
Max retry count : 100
Gap status : Analyzed, Appended (except HTOA)
TOC of the extracted CD
Track | Start | Length | Start sector | End sector
---------------------------------------------------------
1 | 00:00:00 | 08:29:27 | 0 | 38201
2 | 08:29:27 | 04:46:45 | 38202 | 59696
3 | 13:15:72 | 04:47:25 | 59697 | 81246
4 | 18:03:22 | 01:14:55 | 81247 | 86851
5 | 19:18:02 | 01:35:45 | 86852 | 94021
6 | 20:53:47 | 07:33:28 | 94022 | 128024
7 | 28:27:00 | 06:49:22 | 128025 | 158721
8 | 35:16:22 | 06:28:03 | 158722 | 187824
AccurateRip Summary (DiscID: 000cbc20-0052ef74-6009c808)
Track 01 : OK (v1, confidence 2/2)
Track 02 : OK (v1, confidence 2/2)
Track 03 : OK (v1, confidence 2/2)
Track 04 : OK (v1, confidence 2/2)
Track 05 : OK (v1, confidence 2/2)
Track 06 : OK (v1, confidence 2/2)
Track 07 : OK (v1, confidence 2/2)
Track 08 : OK (v1, confidence 2/2)
->All tracks accurately ripped.
All Tracks
Album gain : -0.45 dB
Peak : 0.802490
Statistics
Read error : 0
Jitter error (maybe fixed) : 0
Retry sector count : 0
Damaged sector count : 0
Track 01
Filename : /Users/Home/XLD/Egberto Gismonti - Corações Futuristas (1976) [FLAC]/01 Dança Das Cabeças.flac
Pre-gap length : 00:02:00
Track gain : -1.75 dB
Peak : 0.670105
CRC32 hash (test run) : 6D1D196F
CRC32 hash : 6D1D196F
CRC32 hash (skip zero) : 4C0ADCB6
AccurateRip v1 signature : 0DCD54A9
AccurateRip v2 signature : F0B9EFAD
->Accurately ripped (v1, confidence 2/2)
Statistics
Read error : 0
Jitter error (maybe fixed) : 0
Retry sector count : 0
Damaged sector count : 0
Track 02
Filename : /Users/Home/XLD/Egberto Gismonti - Corações Futuristas (1976) [FLAC]/02 Café.flac
Track gain : -0.95 dB
Peak : 0.575409
CRC32 hash (test run) : AB0F20B9
CRC32 hash : AB0F20B9
CRC32 hash (skip zero) : 2B6401CF
AccurateRip v1 signature : 99281A94
AccurateRip v2 signature : A958FA3D
->Accurately ripped (v1, confidence 2/2)
Statistics
Read error : 0
Jitter error (maybe fixed) : 0
Retry sector count : 0
Damaged sector count : 0
Track 03
Filename : /Users/Home/XLD/Egberto Gismonti - Corações Futuristas (1976) [FLAC]/03 Carmo.flac
Track gain : 3.36 dB
Peak : 0.534851
CRC32 hash (test run) : AA251976
CRC32 hash : AA251976
CRC32 hash (skip zero) : A62D70F3
AccurateRip v1 signature : 5D8FB6A9
AccurateRip v2 signature : 2EF99EAC
->Accurately ripped (v1, confidence 2/2)
Statistics
Read error : 0
Jitter error (maybe fixed) : 0
Retry sector count : 0
Damaged sector count : 0
Track 04
Filename : /Users/Home/XLD/Egberto Gismonti - Corações Futuristas (1976) [FLAC]/04 Altura Do Sol.flac
Track gain : -1.40 dB
Peak : 0.647461
CRC32 hash (test run) : 5CEC1C02
CRC32 hash : 5CEC1C02
CRC32 hash (skip zero) : AD9004EC
AccurateRip v1 signature : B5CB39B8
AccurateRip v2 signature : 92C6747A
->Accurately ripped (v1, confidence 2/2)
Statistics
Read error : 0
Jitter error (maybe fixed) : 0
Retry sector count : 0
Damaged sector count : 0
Track 05
Filename : /Users/Home/XLD/Egberto Gismonti - Corações Futuristas (1976) [FLAC]/05 Polichinelo.flac
Track gain : 5.12 dB
Peak : 0.315826
CRC32 hash (test run) : B28EA168
CRC32 hash : B28EA168
CRC32 hash (skip zero) : 41E775A7
AccurateRip v1 signature : E726C2A5
AccurateRip v2 signature : 96AF02DF
->Accurately ripped (v1, confidence 2/2)
Statistics
Read error : 0
Jitter error (maybe fixed) : 0
Retry sector count : 0
Damaged sector count : 0
Track 06
Filename : /Users/Home/XLD/Egberto Gismonti - Corações Futuristas (1976) [FLAC]/06 Trem Noturno.flac
Track gain : 0.63 dB
Peak : 0.802490
CRC32 hash (test run) : 40D879C8
CRC32 hash : 40D879C8
CRC32 hash (skip zero) : B72A2A44
AccurateRip v1 signature : CE5CF53B
AccurateRip v2 signature : 0FBB792C
->Accurately ripped (v1, confidence 2/2)
Statistics
Read error : 0
Jitter error (maybe fixed) : 0
Retry sector count : 0
Damaged sector count : 0
Track 07
Filename : /Users/Home/XLD/Egberto Gismonti - Corações Futuristas (1976) [FLAC]/07 Ano Zero.flac
Track gain : 3.16 dB
Peak : 0.612274
CRC32 hash (test run) : C9194A9F
CRC32 hash : C9194A9F
CRC32 hash (skip zero) : AEF22FCC
AccurateRip v1 signature : D4C9E2BF
AccurateRip v2 signature : 1D8E20F1
->Accurately ripped (v1, confidence 2/2)
Statistics
Read error : 0
Jitter error (maybe fixed) : 0
Retry sector count : 0
Damaged sector count : 0
Track 08
Filename : /Users/Home/XLD/Egberto Gismonti - Corações Futuristas (1976) [FLAC]/08 Baião Do Acordar.flac
Track gain : -1.10 dB
Peak : 0.677399
CRC32 hash (test run) : 12897310
CRC32 hash : 12897310
CRC32 hash (skip zero) : EA0A5BC9
AccurateRip v1 signature : 22093879
AccurateRip v2 signature : 71C58EF5
->Accurately ripped (v1, confidence 2/2)
Statistics
Read error : 0
Jitter error (maybe fixed) : 0
Retry sector count : 0
Damaged sector count : 0
No errors occurred
End of status report
 
Содержание индексной карты (.CUE)
REM GENRE "Progressive Rock / Chamber Jazz / Chamber Rock / Avant-Garde Jazz / Modern Creative"
REM DATE 1976
REM DISCID 6009C808
REM COMMENT "X Lossless Decoder version 20130602 (143.2)"
PERFORMER "Egberto Gismonti"
TITLE "Coracoes Futuristas"
FILE "01 - Danca das Cabecas.wav" WAVE
TRACK 01 AUDIO
TITLE "Danca das Cabecas"
PERFORMER "Egberto Gismonti"
INDEX 01 00:00:00
FILE "02 - Cafe.wav" WAVE
TRACK 02 AUDIO
TITLE "Cafe"
PERFORMER "Egberto Gismonti"
INDEX 01 00:00:00
FILE "03 - Carmo.wav" WAVE
TRACK 03 AUDIO
TITLE "Carmo"
PERFORMER "Egberto Gismonti"
INDEX 01 00:00:00
FILE "04 - Altura do Sol.wav" WAVE
TRACK 04 AUDIO
TITLE "Altura Do Sol"
PERFORMER "Egberto Gismonti"
INDEX 01 00:00:00
FILE "05 - Polichinelo.wav" WAVE
TRACK 05 AUDIO
TITLE "Polichinelo"
PERFORMER "Egberto Gismonti"
INDEX 01 00:00:00
FILE "06 - Trem Noturno.wav" WAVE
TRACK 06 AUDIO
TITLE "Trem Noturno"
PERFORMER "Egberto Gismonti"
INDEX 01 00:00:00
FILE "07 - Ano Zero.wav" WAVE
TRACK 07 AUDIO
TITLE "Ano Zero"
PERFORMER "Egberto Gismonti"
INDEX 01 00:00:00
FILE "08 - Baiao do Acordar.wav" WAVE
TRACK 08 AUDIO
TITLE "Baiao do Acordar"
PERFORMER "Egberto Gismonti"
INDEX 01 00:00:00
 
Скриншот спектра частот
 
Состав
Egberto Gismonti — arp odissey II, arp strings, space echo, mutron bi-phase, pianos acústico e rhodes 88, violão e voz
Luiz Alves — contra-baixo
Robertinho Silva — bateria e percussão
Nivaldo Ornelas — sax e flauta
 
1984 - Jazzbühne Berlin '84 Vol. 6 (with Naná Vasconcelos) [live] [flac]
Duo Gismonti & Vasconcelos - Jazzbühne Berlin '84 Vol. 6
Жанр: Contemporary Jazz / World Fusion
Страна-производитель диска: Germany
Год издания: 1984 (1990)
Издатель (лейбл): Repertoire
Номер по каталогу: RR 4906-CC
Продолжительность: 48:15
Источник (релизер): what.cd (lewismi)
Наличие сканов в содержимом раздачи: да
Треклист:
1. Em Familia 10:03
2. Dança das Cabeças 8:43
3. O Berimbau 4:37
4. Selva Amazônica 10:30
5. Corpo / Salvador 8:46
6. Dança Solitária No. 1 5:36
 
Лог создания рипа
Exact Audio Copy V1.0 beta 3 from 29. August 2011
EAC extraction logfile from 24. September 2013, 21:09
Gismonti, Vasconcelos / Jazzbühne berlin 1984
Used drive : TSSTcorpCD/DVDW SH-S182M Adapter: 2 ID: 0
Read mode : Secure
Utilize accurate stream : Yes
Defeat audio cache : Yes
Make use of C2 pointers : No
Read offset correction : 6
Overread into Lead-In and Lead-Out : No
Fill up missing offset samples with silence : Yes
Delete leading and trailing silent blocks : No
Null samples used in CRC calculations : Yes
Used interface : Native Win32 interface for Win NT & 2000
Gap handling : Appended to previous track
Used output format : User Defined Encoder
Selected bitrate : 1024 kBit/s
Quality : High
Add ID3 tag : No
Command line compressor : C:\Program Files (x86)\Exact Audio Copy\FLAC\flac.exe
Additional command line options : -8 -V -T "ARTIST=%artist%" -T "TITLE=%title%" -T "ALBUM=%albumtitle%" -T "DATE=%year%" -T "TRACKNUMBER=%tracknr%" -T "GENRE=%genre%" -T "PERFORMER=%albuminterpret%" -T "COMPOSER=%composer%" %haslyrics%--tag-from-file=LYRICS="%lyricsfile%"%haslyrics% -T "ALBUMARTIST=%albumartist%" -T "DISCNUMBER=%cdnumber%" -T "TOTALDISCS=%totalcds%" -T "TOTALTRACKS=%numtracks%" -T "COMMENT=%comment%" %source% -o %dest%
TOC of the extracted CD
Track | Start | Length | Start sector | End sector
---------------------------------------------------------
1 | 0:00.00 | 10:03.25 | 0 | 45249
2 | 10:03.25 | 8:42.50 | 45250 | 84449
3 | 18:46.00 | 4:37.25 | 84450 | 105249
4 | 23:23.25 | 10:29.50 | 105250 | 152474
5 | 33:53.00 | 8:46.25 | 152475 | 191949
6 | 42:39.25 | 5:35.50 | 191950 | 217124
Track 1
Filename C:\Users\Mike\Downloads\Egberto Gismonti & Nana Vasconcelos - Jazzbuhne Berlin '84 (1990) [FLAC] {RR 4906-CC}\01 Em Familia.wav
Pre-gap length 0:00:02.00
Peak level 90.4 %
Extraction speed 5.1 X
Track quality 100.0 %
Test CRC 3FCC4CA5
Copy CRC 3FCC4CA5
Accurately ripped (confidence 3) [86AA3D1A] (AR v2)
Copy OK
Track 2
Filename C:\Users\Mike\Downloads\Egberto Gismonti & Nana Vasconcelos - Jazzbuhne Berlin '84 (1990) [FLAC] {RR 4906-CC}\02 Danca das Cabecas.wav
Peak level 73.9 %
Extraction speed 6.0 X
Track quality 100.0 %
Test CRC 865B241A
Copy CRC 865B241A
Accurately ripped (confidence 3) [F6129EF7] (AR v2)
Copy OK
Track 3
Filename C:\Users\Mike\Downloads\Egberto Gismonti & Nana Vasconcelos - Jazzbuhne Berlin '84 (1990) [FLAC] {RR 4906-CC}\03 O Berimbao.wav
Peak level 68.5 %
Extraction speed 6.3 X
Track quality 100.0 %
Test CRC CD89AA0D
Copy CRC CD89AA0D
Accurately ripped (confidence 3) [EBED4882] (AR v2)
Copy OK
Track 4
Filename C:\Users\Mike\Downloads\Egberto Gismonti & Nana Vasconcelos - Jazzbuhne Berlin '84 (1990) [FLAC] {RR 4906-CC}\04 Selva Amazonica.wav
Peak level 71.0 %
Extraction speed 7.3 X
Track quality 100.0 %
Test CRC 069BD4DC
Copy CRC 069BD4DC
Accurately ripped (confidence 3) [0FE8EF70] (AR v2)
Copy OK
Track 5
Filename C:\Users\Mike\Downloads\Egberto Gismonti & Nana Vasconcelos - Jazzbuhne Berlin '84 (1990) [FLAC] {RR 4906-CC}\05 Corpo,Salvador.wav
Peak level 82.6 %
Extraction speed 7.9 X
Track quality 100.0 %
Test CRC 2268398F
Copy CRC 2268398F
Accurately ripped (confidence 3) [14C8946B] (AR v2)
Copy OK
Track 6
Filename C:\Users\Mike\Downloads\Egberto Gismonti & Nana Vasconcelos - Jazzbuhne Berlin '84 (1990) [FLAC] {RR 4906-CC}\06 Danca Solitarie No1.wav
Peak level 79.4 %
Extraction speed 7.3 X
Track quality 99.9 %
Test CRC 5CB3E4AC
Copy CRC 5CB3E4AC
Accurately ripped (confidence 3) [84EA6E3A] (AR v2)
Copy OK
All tracks accurately ripped
No errors occurred
End of status report
---- CUETools DB Plugin V2.1.3
[CTDB TOCID: EcHWfQ2jrepQwuPM3xd7.NpSgSM-] found, Submit result: already submitted
[a18dbbe0] (7/7) Accurately ripped
==== Log checksum 5BC8D82DA0942169410186431CFFBAA4FB4D99F25D8396E50765F34E9762D749 ====
 
Содержание индексной карты (.CUE)
REM GENRE "Contemporary Jazz / World Fusion"
REM DATE 1984
REM DISCID 3B0B4F06
REM COMMENT "ExactAudioCopy v1.0b3"
PERFORMER "Duo Gismonti - Vasconcelos"
TITLE "Jazzbuhne Berlin '84 Vol. 6"
FILE "01 - Em Familia.wav" WAVE
TRACK 01 AUDIO
TITLE "Em Familia"
PERFORMER "Duo Gismonti - Vasconcelos"
INDEX 01 00:00:00
FILE "02 - Danca das Cabecas.wav" WAVE
TRACK 02 AUDIO
TITLE "Danca das Cabecas"
PERFORMER "Duo Gismonti - Vasconcelos"
INDEX 01 00:00:00
FILE "03 - O Berimbau.wav" WAVE
TRACK 03 AUDIO
TITLE "O Berimbau"
PERFORMER "Duo Gismonti - Vasconcelos"
INDEX 01 00:00:00
FILE "04 - Selva Amazonica.wav" WAVE
TRACK 04 AUDIO
TITLE "Selva Amazonica"
PERFORMER "Duo Gismonti - Vasconcelos"
INDEX 01 00:00:00
FILE "05 - Corpo, Salvador.wav" WAVE
TRACK 05 AUDIO
TITLE "Corpo / Salvador"
PERFORMER "Duo Gismonti - Vasconcelos"
INDEX 01 00:00:00
FILE "06 - Danca Solitaria No. 1.wav" WAVE
TRACK 06 AUDIO
TITLE "Danca Solitaria No. 1"
PERFORMER "Duo Gismonti - Vasconcelos"
INDEX 01 00:00:00
 
Скриншот спектра частот
 
Состав
Egberto Gismonti — guitar
Naná Vasconcelos — percussion
 
1987 - Alma [flac]
Egberto Gismonti - Alma
Жанр: Contemporary Jazz
Страна-производитель диска: Brazil
Год издания: 1987 (1993)
Издатель (лейбл): Polygram
Продолжительность: 1:11:10
Источник (релизер): what.cd (Wolo)
Наличие сканов в содержимом раздачи: сканы издания Carmo 529 123-2
Треклист:
1. Baião Malandro 4:16
2. Palhaço 4:07
3. Loro 3:59
4. Maracatú 5:30
5. Karatê 2:39
6. Água & Vinho 5:04
7. Frevo 6:09
8. Cigana 4:43
Bonus tracks (1993):
9. Ruth 7:03
10. Sanfona 5:32
11. Fala Da Peixão 8:26
12. Realejo 4:48
13. 7 Anéis 8:54
 
Лог создания рипа
Exact Audio Copy V1.0 beta 3 from 29. August 2011
EAC extraction logfile from 27. January 2012, 16:45
Egberto Gismonti / Alma
Used drive : TSSTcorpCDDVDW TS-L633C Adapter: 2 ID: 0
Read mode : Secure
Utilize accurate stream : Yes
Defeat audio cache : Yes
Make use of C2 pointers : No
Read offset correction : 6
Overread into Lead-In and Lead-Out : No
Fill up missing offset samples with silence : Yes
Delete leading and trailing silent blocks : No
Null samples used in CRC calculations : Yes
Used interface : Native Win32 interface for Win NT & 2000
Gap handling : Appended to previous track
Used output format : User Defined Encoder
Selected bitrate : 128 kBit/s
Quality : High
Add ID3 tag : No
Command line compressor : C:\Program Files (x86)\Exact Audio Copy\Flac\flac.exe
Additional command line options : -8 -V -T "ARTIST=%artist%" -T "TITLE=%title%" -T "ALBUM=%albumtitle%" -T "DATE=%year%" -T "TRACKNUMBER=%tracknr%" -T "GENRE=%genre%" -T "PERFORMER=%albuminterpret%" -T "COMPOSER=%composer%" %haslyrics%--tag-from-file=LYRICS="%lyricsfile%"%haslyrics% -T "ALBUMARTIST=%albumartist%" -T "ALBUM ARTIST=%albumartist%" -T "DISCNUMBER=%cdnumber%" -T "TOTALDISCS=%totalcds%" -T "TOTALTRACKS=%numtracks%" -T "COMMENT=EAC V1.0 beta 2, Secure Mode, Test & Copy, AccurateRip, FLAC -8" %source% -o %dest%
TOC of the extracted CD
Track | Start | Length | Start sector | End sector
---------------------------------------------------------
1 | 0:00.00 | 4:16.20 | 0 | 19219
2 | 4:16.20 | 4:07.25 | 19220 | 37769
3 | 8:23.45 | 3:58.57 | 37770 | 55676
4 | 12:22.27 | 5:30.10 | 55677 | 80436
5 | 17:52.37 | 2:38.65 | 80437 | 92351
6 | 20:31.27 | 5:04.35 | 92352 | 115186
7 | 25:35.62 | 6:09.28 | 115187 | 142889
8 | 31:45.15 | 4:43.15 | 142890 | 164129
9 | 36:28.30 | 7:03.22 | 164130 | 195876
10 | 43:31.52 | 5:31.38 | 195877 | 220739
11 | 49:03.15 | 8:26.05 | 220740 | 258694
12 | 57:29.20 | 4:47.55 | 258695 | 280274
13 | 62:17.00 | 8:54.20 | 280275 | 320344
Track 1
Filename G:\EACRIPS\Egberto Gismonti - Alma (1987) [FLAC]\01. Baião Malandro.wav
Pre-gap length 0:00:02.00
Peak level 78.3 %
Extraction speed 1.0 X
Track quality 99.9 %
Test CRC 8DB9DC00
Copy CRC 8DB9DC00
Accurately ripped (confidence 5) [BDDD5E47] (AR v1)
Copy OK
Track 2
Filename G:\EACRIPS\Egberto Gismonti - Alma (1987) [FLAC]\02. Palhaço.wav
Peak level 74.4 %
Extraction speed 1.1 X
Track quality 99.9 %
Test CRC 57D27260
Copy CRC 57D27260
Accurately ripped (confidence 5) [DA86747E] (AR v1)
Copy OK
Track 3
Filename G:\EACRIPS\Egberto Gismonti - Alma (1987) [FLAC]\03. Loro.wav
Peak level 68.8 %
Extraction speed 1.4 X
Track quality 100.0 %
Test CRC 238C3FC4
Copy CRC 238C3FC4
Accurately ripped (confidence 5) [5B6F82B5] (AR v1)
Copy OK
Track 4
Filename G:\EACRIPS\Egberto Gismonti - Alma (1987) [FLAC]\04. Maracatú.wav
Peak level 83.4 %
Extraction speed 1.6 X
Track quality 100.0 %
Test CRC 1189A32E
Copy CRC 1189A32E
Accurately ripped (confidence 5) [79DF22B9] (AR v1)
Copy OK
Track 5
Filename G:\EACRIPS\Egberto Gismonti - Alma (1987) [FLAC]\05. Karatê.wav
Peak level 65.7 %
Extraction speed 1.5 X
Track quality 100.0 %
Test CRC A42BB1C3
Copy CRC A42BB1C3
Accurately ripped (confidence 5) [4006D687] (AR v1)
Copy OK
Track 6
Filename G:\EACRIPS\Egberto Gismonti - Alma (1987) [FLAC]\06. Agua & Vinho.wav
Peak level 59.4 %
Extraction speed 1.6 X
Track quality 99.9 %
Test CRC ECA5CE8E
Copy CRC ECA5CE8E
Accurately ripped (confidence 5) [8EDAF8FE] (AR v1)
Copy OK
Track 7
Filename G:\EACRIPS\Egberto Gismonti - Alma (1987) [FLAC]\07. Frevo.wav
Peak level 75.0 %
Extraction speed 1.9 X
Track quality 100.0 %
Test CRC 6CA82BFF
Copy CRC 6CA82BFF
Accurately ripped (confidence 5) [77F2CBFC] (AR v1)
Copy OK
Track 8
Filename G:\EACRIPS\Egberto Gismonti - Alma (1987) [FLAC]\08. Cigana.wav
Peak level 47.3 %
Extraction speed 1.7 X
Track quality 99.9 %
Test CRC 7E39BA82
Copy CRC 7E39BA82
Accurately ripped (confidence 5) [CDDD2786] (AR v1)
Copy OK
Track 9
Filename G:\EACRIPS\Egberto Gismonti - Alma (1987) [FLAC]\09. Ruth.wav
Peak level 44.7 %
Extraction speed 2.0 X
Track quality 99.9 %
Test CRC CF0DD19B
Copy CRC CF0DD19B
Accurately ripped (confidence 5) [A2C1E503] (AR v1)
Copy OK
Track 10
Filename G:\EACRIPS\Egberto Gismonti - Alma (1987) [FLAC]\10. Sanfona.wav
Peak level 100.0 %
Extraction speed 2.2 X
Track quality 100.0 %
Test CRC 12854AD8
Copy CRC 12854AD8
Accurately ripped (confidence 5) [C64D1312] (AR v1)
Copy OK
Track 11
Filename G:\EACRIPS\Egberto Gismonti - Alma (1987) [FLAC]\11. Fala da Paixão.wav
Peak level 46.0 %
Extraction speed 2.4 X
Track quality 100.0 %
Test CRC 899132BC
Copy CRC 899132BC
Accurately ripped (confidence 5) [6798D
03:12
747
Нет комментариев. Ваш будет первым!