Поиск

(Contemporary Jazz, Latin Jazz) Charlie Sepulveda - Sepulveda Blvd - 2009, APE (image+.cue), lossless

(Contemporary Jazz, Latin Jazz) Charlie Sepulveda - Sepulveda Blvd - 2009, APE (image+.cue), lossless
Треклист:
Charlie Sepulveda / Sepulveda Blvd Жанр: Contemporary Jazz, Latin Jazz
Год издания диска: 2009
Издатель (лейбл): Turnaround Rec
Аудиокодек: APE (*.ape)
Тип рипа: image+.cue
Битрейт аудио: lossless
Продолжительность: 70:08
Источник (релизер): HQS (dreadbull)
Наличие сканов в содержимом раздачи: да
Треклист:
1. Sepulveda Boulevard /Norberto Ortiz/ 7:43
2. Retrospective /Eduardo Zayas/ 6:53
3. Skydive /Freddie Hubbard/ 10:54
4. Dois Pra Lá, Dois Pra Cá /Bosco, Blanc/ 3:57
5. Amigos del Pincel /Sepulveda/ 6:57
6. Melisa /Raul Maldonado/ 8:46
7. Tus Ojos /José "Pepe" Delgado/ 4:44
8. Latinos /Gabriel Rodriguez/ 6:13
9. Mis Amores /Simon Madera/ 5:22
10. Sepulveda Boulevard (radio ver.) 4:02
11. Skydive (radio ver.) 4:22
Не особо популярный на тру, но от этого не менее искусный трубач Чарли Сепульведа представляет свой последний на сегодня альбом крепкого современного латин-джаза. А 4-й и 5-й треки с приглашёнными музыкантами - так просто отпад.
 
Лог создания рипа
EAC extraction logfile from 5. May 2011, 10:26 for CD
Charlie Sepulveda & The Turnaround / Sepulveda Boulevard
Used drive : ASUS DRW-22B2L Adapter: 0 ID: 1
Read mode : Secure with NO C2, accurate stream, disable cache
Read offset correction : 6
Overread into Lead-In and Lead-Out : No
Used output format : Internal WAV Routines
44.100 Hz; 16 Bit; Stereo
Other options :
Fill up missing offset samples with silence : Yes
Delete leading and trailing silent blocks : No
Installed external ASPI interface
Range status and errors
Selected range
Filename D:\Donkey Files\Charlie Sepulveda - Sepulveda Blvd (2009, Turnaround) [eac-ape-scans] byDrBull\CDImage.wav
Peak level 100.0 %
Range quality 100.0 %
CRC 7BA74B48
Copy OK
No errors occured
End of status report
 
Содержание индексной карты (.CUE)
PERFORMER "Charlie Sepulveda & The Turnaround"
TITLE "Sepulveda Boulevard"
FILE "CDImage.wav" WAVE
TRACK 01 AUDIO
TITLE "Sepulveda Boulevard"
PERFORMER "Charlie Sepulveda & The Turnaround"
INDEX 01 00:00:00
TRACK 02 AUDIO
TITLE "Retrospective"
PERFORMER "Charlie Sepulveda & The Turnaround"
INDEX 01 07:44:43
TRACK 03 AUDIO
TITLE "Skydive"
PERFORMER "Charlie Sepulveda & The Turnaround"
INDEX 01 14:39:08
TRACK 04 AUDIO
TITLE "Dois Pra La, Dois Pra Ca"
PERFORMER "Charlie Sepulveda & The Turnaround"
INDEX 01 25:34:47
TRACK 05 AUDIO
TITLE "Amigos del Pincel"
PERFORMER "Charlie Sepulveda & The Turnaround"
INDEX 01 29:33:29
TRACK 06 AUDIO
TITLE "Melisa"
PERFORMER "Charlie Sepulveda & The Turnaround"
INDEX 01 36:32:05
TRACK 07 AUDIO
TITLE "Tus ojos"
PERFORMER "Charlie Sepulveda & The Turnaround"
INDEX 01 45:19:55
TRACK 08 AUDIO
TITLE "Latinos"
PERFORMER "Charlie Sepulveda & The Turnaround"
INDEX 01 50:05:02
TRACK 09 AUDIO
TITLE "Mis amores"
PERFORMER "Charlie Sepulveda & The Turnaround"
INDEX 01 56:19:23
TRACK 10 AUDIO
TITLE "Sepulveda Boulevard (radio version)"
PERFORMER "Charlie Sepulveda & The Turnaround"
INDEX 01 61:41:06
TRACK 11 AUDIO
TITLE "Skydive (radio version)"
PERFORMER "Charlie Sepulveda & The Turnaround"
INDEX 01 65:45:49
 
Лог проверки качества
AUDIOCHECKER v2.0 beta (build 457) - by Dester - opdester@freemail.hu
~~~~~~~~~~~~~~~~~~~~~~~~~~~~~~~~~~
-=== DO NOT EDIT THIS FILE! ===-
Path: ...\Charlie Sepulveda - Sepulveda Blvd (2009)
1 -=- CDImage.ape -=- CDDA (99%)
184719956
 
Об альбоме (сборнике)
Grammy nominated Latin jazz band Charlie Sepulveda & the Turnaround released their latest album on May 29, 2009. The 11 track recording includes a collaboration with Christian Nieves, an innovative cuatro player who has played with the likes of Ricky Martin. Christian blends the sounds of Puerto Rico’s plena to help create an album that is original and upholds Charlie’s evolving trend to honor his Latin upbringing. "I always try to include a bolero, a danza or a plena in my albums," says Charlie. "I grew up with that music and I think it’s important to represent nuestra cultura y raíces (our culture and our roots)."
A continuation of their previous album, Sepulveda Boulevard includes material contributed by most of the band members, an undertaking normally done by Charlie. The individual input from each group member gives the album a personal touch and diversity in style. In the album’s 4th track, "Dois pra lá, dois pra cá," arranged by bassist Gabriel Rodríguez, Melisa Meléndez complements Charlie’s soothing trumpet melodies with her sensual vocals to produce this breathtaking ballad [an excerpt from the repertoire of amazing Brazilian singer Elis Regina - DrBull].
A pioneer of the Latin jazz scene in the Caribbean, Latin America and the U.S., Charlie continues to create a buzz in the jazz community. Hailed as one of the best trumpeters of our time, Charlie also devotes part of his time to teaching at the Conservatory of Music and volunteering at his local church in Luquillo. He has played and recorded among masters like: Tito Puente, Dizzy Gillespie, Giovanni Hidalgo, McCoy Tyner, Wynton Marsalis, Eddie Palmieri, Dave Valentín, Hilton Rúiz, Paquito D’Rivera, Michel Camilo, Sheila E., Marc Anthony and many others.
~Paulina Salach, jazzreview.com
 
Состав
Charlie Sepúlveda - trumpet & flugelhorn;
Eduardo Zayas - piano;
Gabriel Rodríguez - bass;
Gadwin Vargas - congas;
Raúl Maldonado - drums;
Norberto "Tiko" Ortiz - tenor sax.
Guests:
Christian Nieves - cuatro (#5);
Melisa Meléndez - vocals (#4).
Приятных впечатлений!
23:12
270
Нет комментариев. Ваш будет первым!