Поиск

(Contemporary Jazz / Jazz-Funk / Avant-Garde Jazz) James Carter (Jef Lee Johnson, Marc Ribot, Jamaaladeen Tacuma, G. Calvin Weston) - Layin' In The Cut - 2000, FLAC (tracks+.cue), lossless

(Contemporary Jazz / Jazz-Funk / Avant-Garde Jazz) James Carter (Jef Lee Johnson, Marc Ribot, Jamaaladeen Tacuma, G. Calvin Weston) - Layin' In The Cut - 2000, FLAC (tracks+.cue), lossless
Треклист:
James Carter - Layin' In The Cut
Жанр: Contemporary Jazz / Jazz-Funk / Avant-Garde Jazz
Страна-производитель диска: Germany
Год издания: 2000
Издатель (лейбл): Atlantic Records
Номер по каталогу: 7567-83305-2
Аудиокодек: FLAC (*.flac)
Тип рипа: tracks+.cue
Битрейт аудио: lossless
Продолжительность: 00:47:43
Источник (релизер): собственный рип с оригинального Audio CD
Наличие сканов в содержимом раздачи: да
Треклист:
1. Layin' In The Cut (07:00)
2. Motown Mash (07:23)
3. Requiem For Hartford Ave. (05:58)
4. Terminal B (06:45)
5. Drafadelic In Db (05:48)
6. There's A Paddle (07:32)
7. GP (07:18)
Доп. информация:
Musicians:
James Carter - saxophones
Jef Lee Johnson - electric guitar
Marc Ribot - electric guitar
Jamaaladeen Tacuma - electric bass
G. Calvin Weston - drums
Recorded direct to 24bit/96Khz stereo by Danny Kopelson at the Magic Shop, New York, NY
© 2000 Atlantic Recording Corporation for the United States and WEA International Inc.
James Carter jamescarterlive.com
James Carter myspace.com
James Carter from Wikipedia, the free encyclopedia
James Carter - Layin' In The Cut allmusic.com
 
... text ...
It's really a loose, collective electric jam session with all of the risks, occasional hot streaks, and passages of torpor that the term implies ...
 
 
Review
The second of James Carter's pair of 2000 releases shifts wildly, and perhaps trendily, toward electric funk, as the title cut proclaims within seconds. It's really a loose, collective electric jam session with all of the risks, occasional hot streaks, and passages of torpor that the term implies. Oddly enough, the tracks that really make it are those that are credited to only one composer: guitarist Jef Lee Johnson's stimulating Prime Time-like melee, "Terminal B," that gathers momentum like a freight train; Carter's cooking "There's a Puddle" that explodes into a freeform burst on cue at the end; and Carter's "GP." The collectively credited pieces are the ones that tend to go nowhere, often desperately in need of editing or clear direction. At all times, though, Carter is a freewheeling dynamo on soprano and tenor saxes, not afraid to reach wildly to the outside even when the funk backgrounds are merely mild mannered. Carter draws from the New York City avant-garde scene for help: Marc Ribot is the other electric guitarist, Jamaaladeen Tacuma plays bass, and the volatile drummer G. Calvin Weston tries with partial success to mix things up. Carter says that he intends to pursue this direction in the future -- with hopefully less diffuse results.
Richard S. Ginell ~ AMG
 
 
... back ...
 
 
 
EAC / evidence
 
 
 
EAC extraction logfile from 23. April 2012, 17:57
Exact Audio Copy V1.0 beta 3 from 29. August 2011
EAC extraction logfile from 23. April 2012, 17:57
James Carter / Layin' In The Cut
Used drive  : Optiarc DVD RW AD-7260S   Adapter: 2  ID: 0
Read mode               : Secure
Utilize accurate stream : Yes
Defeat audio cache      : Yes
Make use of C2 pointers : No
Read offset correction                      : 48
Overread into Lead-In and Lead-Out          : No
Fill up missing offset samples with silence : Yes
Delete leading and trailing silent blocks   : No
Null samples used in CRC calculations       : Yes
Used interface                              : Native Win32 interface for Win NT & 2000
Gap handling                                : Appended to previous track
Used output format              : User Defined Encoder
Selected bitrate                : 128 kBit/s
Quality                         : High
Add ID3 tag                     : No
Command line compressor         : D:\Program Files\Exact Audio Copy 1.0 beta3\Flac\flac.exe
Additional command line options : -V -8 -T "Genre=%genre%" -T "Artist=%artist%" -T "Title=%title%" -T "Album=%albumtitle%" -T "Date=%year%" -T "Tracknumber=%tracknr%" -T "Comment=%comment%" %source%
TOC of the extracted CD
     Track |   Start  |  Length  | Start sector | End sector
    ---------------------------------------------------------
        1  |  0:00.00 |  6:57.47 |         0    |    31321
        2  |  6:57.47 |  7:23.38 |     31322    |    64584
        3  | 14:21.10 |  5:58.22 |     64585    |    91456
        4  | 20:19.32 |  6:44.25 |     91457    |   121781
        5  | 27:03.57 |  5:49.13 |    121782    |   147969
        6  | 32:52.70 |  7:30.25 |    147970    |   181744
        7  | 40:23.20 |  7:17.60 |    181745    |   214579
Track  1
     Filename L:\rip by readab\James Carter - Layin' In The Cut (2000)\01 - Layin' In The Cut.wav
     Pre-gap length  0:00:02.00
     Peak level 99.8 %
     Extraction speed 2.3 X
     Track quality 99.9 %
     Test CRC F509613D
     Copy CRC F509613D
     Accurately ripped (confidence 12)  [7516A722]  (AR v1)
     Copy OK
Track  2
     Filename L:\rip by readab\James Carter - Layin' In The Cut (2000)\02 - Motown Mash.wav
     Peak level 99.8 %
     Extraction speed 3.0 X
     Track quality 100.0 %
     Test CRC FFE4E24F
     Copy CRC FFE4E24F
     Accurately ripped (confidence 12)  [7021E362]  (AR v1)
     Copy OK
Track  3
     Filename L:\rip by readab\James Carter - Layin' In The Cut (2000)\03 - Requiem For Hartford Ave.wav
     Pre-gap length  0:00:00.65
     Peak level 99.8 %
     Extraction speed 3.3 X
     Track quality 100.0 %
     Test CRC D05D7D4F
     Copy CRC D05D7D4F
     Accurately ripped (confidence 12)  [A59A3931]  (AR v1)
     Copy OK
Track  4
     Filename L:\rip by readab\James Carter - Layin' In The Cut (2000)\04 - Terminal B.wav
     Pre-gap length  0:00:00.55
     Peak level 99.8 %
     Extraction speed 3.6 X
     Track quality 100.0 %
     Test CRC 55156AAE
     Copy CRC 55156AAE
     Accurately ripped (confidence 12)  [4CEE1BCB]  (AR v1)
     Copy OK
Track  5
     Filename L:\rip by readab\James Carter - Layin' In The Cut (2000)\05 - Drafadelic In Db.wav
     Peak level 99.8 %
     Extraction speed 3.8 X
     Track quality 100.0 %
     Test CRC 09A85258
     Copy CRC 09A85258
     Accurately ripped (confidence 12)  [A5F7413F]  (AR v1)
     Copy OK
Track  6
     Filename L:\rip by readab\James Carter - Layin' In The Cut (2000)\06 - There's A Paddle.wav
     Pre-gap length  0:00:01.13
     Peak level 99.8 %
     Extraction speed 4.2 X
     Track quality 100.0 %
     Test CRC 6C6F9EBE
     Copy CRC 6C6F9EBE
     Accurately ripped (confidence 10)  [03783BF5]  (AR v1)
     Copy OK
Track  7
     Filename L:\rip by readab\James Carter - Layin' In The Cut (2000)\07 - GP.wav
     Peak level 99.8 %
     Extraction speed 4.5 X
     Track quality 100.0 %
     Test CRC 40395A11
     Copy CRC 40395A11
     Accurately ripped (confidence 11)  [437DDC43]  (AR v1)
     Copy OK
All tracks accurately ripped
No errors occurred
End of status report
==== Log checksum 15005ECEE0153EC35602BBDCD869722340F0B51150CAA8B18B6692774553FE92 ====
 
 
Содержание индексной карты (.CUE)
REM GENRE Jazz
REM DATE 2000
REM DISCID 570B2D07
REM COMMENT "ExactAudioCopy v1.0b3"
PERFORMER "James Carter"
TITLE "Layin' In The Cut"
FILE "01 - Layin' In The Cut.wav" WAVE
  TRACK 01 AUDIO
    TITLE "Layin' In The Cut"
    PERFORMER "James Carter"
    ISRC USAT20001026
    INDEX 01 00:00:00
FILE "02 - Motown Mash.wav" WAVE
  TRACK 02 AUDIO
    TITLE "Motown Mash"
    PERFORMER "James Carter"
    ISRC USAT20001027
    INDEX 01 00:00:00
  TRACK 03 AUDIO
    TITLE "Requiem For Hartford Ave"
    PERFORMER "James Carter"
    ISRC USAT20001028
    INDEX 00 07:22:48
FILE "03 - Requiem For Hartford Ave.wav" WAVE
    INDEX 01 00:00:00
  TRACK 04 AUDIO
    TITLE "Terminal B"
    PERFORMER "James Carter"
    ISRC USAT20001029
    INDEX 00 05:57:42
FILE "04 - Terminal B.wav" WAVE
    INDEX 01 00:00:00
FILE "05 - Drafadelic In Db.wav" WAVE
  TRACK 05 AUDIO
    TITLE "Drafadelic In Db"
    PERFORMER "James Carter"
    ISRC USAT20001030
    INDEX 01 00:00:00
  TRACK 06 AUDIO
    TITLE "There's A Paddle"
    PERFORMER "James Carter"
    ISRC USAT20001031
    INDEX 00 05:48:00
FILE "06 - There's A Paddle.wav" WAVE
    INDEX 01 00:00:00
FILE "07 - GP.wav" WAVE
  TRACK 07 AUDIO
    TITLE "GP"
    PERFORMER "James Carter"
    ISRC USAT20001032
    INDEX 01 00:00:00
... релизы с участием JAMES CARTER на трекере ...
По всем вопросам пишите личное сообщение пользователю M0p94ok.
00:45
457
Нет комментариев. Ваш будет первым!