Вы используете незарегистрированную версию компонента "Вкладки"!

Поиск

(Contemporary Jazz, Intelligent Avant Garde, Tzadik New Japan) Radar - Easy Listening - 2005, FLAC (image+.cue), lossless

Треклист:
Radar - Easy Listening
Жанр: Contemporary Jazz, Intelligent Avant Garde, Tzadik New Japan
Год выпуска диска: 2005
Производитель диска: USA (Tzadik)
Аудио кодек: FLAC
Тип рипа: image+.cue
Битрейт аудио: lossless
Продолжительность: 51.38
Трэклист:
1. BGM 1
2. Sound Check
3. Cardinal Number
4. BGM 4
5. Paul (Song Of Gumtape)
6. My String (Radar version)
7. BGM 3
8. Obieru (Frightened)
9. BGM 2
10. Aitai No De-Su-Ga
11. Melody 1
12. Namida
Доп. информация: Inada Makoto - contrabass, vocal
Katori Koichiro - piano, accordion, low voice, chorus
Mizutani Yasuhisa - soprano sax, clarinet, percussion, chorus
 
eac log
Exact Audio Copy V0.99 prebeta 5 from 4. May 2009
EAC extraction logfile from 11. March 2010, 21:29
Radar / Easy Listening
Used drive : TSSTcorpCDDVDW TS-L633C Adapter: 0 ID: 1
Read mode : Secure
Utilize accurate stream : Yes
Defeat audio cache : Yes
Make use of C2 pointers : No
Read offset correction : 6
Overread into Lead-In and Lead-Out : No
Fill up missing offset samples with silence : Yes
Delete leading and trailing silent blocks : No
Null samples used in CRC calculations : Yes
Used interface : Native Win32 interface for Win NT & 2000
Used output format : User Defined Encoder
Selected bitrate : 768 kBit/s
Quality : High
Add ID3 tag : No
Command line compressor : C:\Program Files (x86)\Exact Audio Copy\Flac\flac.exe
Additional command line options : -8 -V %s
TOC of the extracted CD
Track | Start | Length | Start sector | End sector
---------------------------------------------------------
1 | 0:00.00 | 4:05.53 | 0 | 18427
2 | 4:05.53 | 4:16.28 | 18428 | 37655
3 | 8:22.06 | 4:00.42 | 37656 | 55697
4 | 12:22.48 | 5:17.33 | 55698 | 79505
5 | 17:40.06 | 3:15.68 | 79506 | 94198
6 | 20:55.74 | 7:40.57 | 94199 | 128755
7 | 28:36.56 | 5:30.29 | 128756 | 153534
8 | 34:07.10 | 1:45.17 | 153535 | 161426
9 | 35:52.27 | 3:39.55 | 161427 | 177906
10 | 39:32.07 | 3:17.37 | 177907 | 192718
11 | 42:49.44 | 3:47.17 | 192719 | 209760
12 | 46:36.61 | 5:01.59 | 209761 | 232394
Range status and errors
Selected range
Filename C:\CDs\Radar - Easy Listening\Radar - Easy Listening.wav
Peak level 100.0 %
Range quality 100.0 %
Copy CRC 812D2C7A
Copy OK
No errors occurred
AccurateRip summary
Track 1 not present in database
Track 2 not present in database
Track 3 not present in database
Track 4 not present in database
Track 5 not present in database
Track 6 not present in database
Track 7 not present in database
Track 8 not present in database
Track 9 not present in database
Track 10 not present in database
Track 11 not present in database
Track 12 not present in database
None of the tracks are present in the AccurateRip database
End of status report
Any questions -> support@pro-jazz.com. По всем вопросам пишите -> support@pro-jazz.com
19:42
175
Нет комментариев. Ваш будет первым!