Поиск

(Contemporary Jazz, Fusion, Funk-Jazz) Randy Brecker - 34th N Lex - 2003, FLAC (image+.cue), lossless

(Contemporary Jazz, Fusion, Funk-Jazz) Randy Brecker - 34th N Lex - 2003, FLAC (image+.cue), lossless
Треклист:
Randy Brecker - 34th N Lex
Жанр: Contemporary Jazz, Fusion, Funk-Jazz
Год выпуска диска: 2003
Производитель диска: Россия
Аудио кодек: FLAC
Тип рипа: image+.cue
Битрейт аудио: lossless
Продолжительность: 56:57
Трэклист:
1. 34th N Lex (Brecker) - 6:28
2. Streeange (Brecker) - 4:21
3. Shanghigh (Brecker) - 5:36
4. All 4 Love (Brecker, Haase, Phoenix) - 3:36
5. Let It Go (Brecker) - 3:57
6. Foregone Conclusion (Brecker, Henderson) - 7:40
7. Hula Dula (Brecker) - 5:08
8. The Fisherman (Brecker, Kottke) - 5:32
9. Give It Up (Brecker) - 5:00
10. Tokyo Freddie (Brecker) - 4:33
11. The Castle Rocks (Brecker) - 4:47
Доп. информация:
Музыканты:
Randy Brecker - Trumpet, Flugelhorn
Michael Brecker - Tenor Sax
David Sanborn - Alto Sax
Ronnie Cuber - Baritone Sax
Ada Rovatti - Tenor Sax
Fred Wesley - Trombone
Michael Davis - Trombone
Adam Rogers - Guitar
Chris Taylor - Guitar
Chris Minh Doky - Electric & Acoustic Bass
Gary Haase - Bass, Guitar, Drums, Keyboards, Programming, Sound Effects, Drum Programming, Percussion Programming, Vocal Effect
George Whitty - Bass, Piano, Keyboards, Programming, Drum Programming, Percussion Programming, Effects, Effects Programming
Clarence Penn - Drums
Zach Danziger - Drum Programming
Makeeba Mooncycle - Voice
J. Phoenix - Vocals
 
EAC Report
Exact Audio Copy V0.99 prebeta 4 from 23. January 2008
Отчёт EAC об извлечении, выполненном 22. декабря 2009, 22:19
Randy Brecker / 34th N Lex
Дисковод: ASUS DRW-1814BLT Adapter: 2 ID: 0
Режим чтения : Достоверность
Использование точного потока : Да
Отключение кэша аудио : Да
Использование указателей C2 : Нет
Коррекция смещения при чтении : 6
Способность читать области Lead-in и Lead-out : Нет
Заполнение пропущенных сэмплов тишиной : Да
Удаление блоков с тишиной в начале и конце : Нет
При вычислениях CRC использовались нулевые сэмплы : Да
Интерфейс : Встроенный Win32-интерфейс для Win NT/2000
Выходной формат : Пользовательский кодировщик
Выбранный битрейт : 256 kBit/s
Качество : Высокий
Добавление ID3-тэга : Нет
Утилита сжатия : D:\Program Files\Exact Audio Copy\Flac\flac.exe
Дополнительные параметры : -8 --delete-input-file -o "D:\CDImage.flac" -V %s
TOC извлечённого CD
Трек | Старт | Длительность | Начальный сектор | Конечный сектор
---------------------------------------------------------------------
1 | 0:00.00 | 6:29.40 | 0 | 29214
2 | 6:29.40 | 4:21.15 | 29215 | 48804
3 | 10:50.55 | 5:37.15 | 48805 | 74094
4 | 16:27.70 | 3:36.30 | 74095 | 90324
5 | 20:04.25 | 3:59.30 | 90325 | 108279
6 | 24:03.55 | 7:42.30 | 108280 | 142959
7 | 31:46.10 | 5:11.22 | 142960 | 166306
8 | 36:57.32 | 5:33.08 | 166307 | 191289
9 | 42:30.40 | 5:01.60 | 191290 | 213924
10 | 47:32.25 | 4:36.25 | 213925 | 234649
11 | 52:08.50 | 4:48.30 | 234650 | 256279
Характеристики диапазона извлечения и сообщения об ошибках
Выбранный диапазон
Имя файла D:\Randy Brecker - 34th N Lex.wav
Пиковый уровень 99.8 %
Качество диапазона 100.0 %
CRC теста F8719776
CRC копии F8719776
Копирование... OK
Ошибок не произошло
AccurateRip: сводка
Трек 1 точность не определена (достоверность 7) [B54C62DC], AccurateRip вернул [EC795A0C]
Трек 2 точность не определена (достоверность 7) [18A50F8E], AccurateRip вернул [A5237C9E]
Трек 3 точность не определена (достоверность 7) [30ECEBA2], AccurateRip вернул [2E8C87EC]
Трек 4 точность не определена (достоверность 7) [47E83875], AccurateRip вернул [273B6EB3]
Трек 5 точность не определена (достоверность 7) [2DEDC615], AccurateRip вернул [239396CE]
Трек 6 точность не определена (достоверность 7) [ED167219], AccurateRip вернул [8E9638D7]
Трек 7 точность не определена (достоверность 7) [4CB8B164], AccurateRip вернул [8E1E038B]
Трек 8 точность не определена (достоверность 7) [0115FA19], AccurateRip вернул [808DBEC8]
Трек 9 точность не определена (достоверность 7) [329FFAE4], AccurateRip вернул [91358AB4]
Трек 10 точность не определена (достоверность 7) [4A390FC5], AccurateRip вернул [911EE844]
Трек 11 точность не определена (достоверность 7) [53A732EE], AccurateRip вернул [919FDFF2]
Ни один трек не прошёл проверки на точность
В вашей базе может быть иной вариант штамповки диска
Конец отчёта
По всем вопросам пишите личное сообщение пользователю M0p94ok.
09:24
349
Нет комментариев. Ваш будет первым!