Вы используете незарегистрированную версию компонента "Вкладки"!

Поиск

(Contemporary Jazz, Fresh Sound New Talent) Yoann Loustalot, Blaise Chevallier, Emile Saubole - Aerophone - 2010, FLAC (tracks+.cue), lossless

(Contemporary Jazz, Fresh Sound New Talent) Yoann Loustalot, Blaise Chevallier, Emile Saubole - Aerophone - 2010, FLAC (tracks+.cue), lossless
Треклист:
Yoann Loustalot, Blaise Chevallier, Émile Saubole / Aerophone
Жанр: Contemporary Jazz, Fresh Sound New Talent
Страна-производитель диска: Spain
Год издания: 2010
Издатель (лейбл): Fresh Sound New Talent
Номер по каталогу: FSNT 377
Аудиокодек: FLAC (*.flac)
Тип рипа: tracks+.cue
Битрейт аудио: lossless
Продолжительность: 45:21
Источник (релизер): Max Monteiro
Наличие сканов в содержимом раздачи: нет
Треклист:
1. Five Characters (In Surch of an Exit) 4:48
2. Effrol’ 4:43
3. Désoriental 5:10
4. Plus de poissons 3:40
5. Frases 5:22
6. Danse des lyntes 4:13
7. Petit Pays 6:26
8. Lamentation 5:32
9. Papagei 5:26
All compositions by Yoann Loustalot except « Effrol’ » and « Danse des lyntes » by Blaise Chevallier and « Désoriental » by Yoann Loustalot and Blaise Chevallier.
Recorded at Studio Berduquet, Cénac (France) on May 9 & 10, 2009.
Yoann Loustalot – Trumpet, Flugelhorn
Blaise Chevallier – Bass
Émile Saubole – Drums
 
Лог создания рипа
Exact Audio Copy V1.0 beta 3 from 29. August 2011
EAC extraction logfile from 1. October 2013, 12:57
Yoann Loustalot, Blaise Chevallier, Émile Saubole / Aerophone
Used drive : SlimtypeeNAU508 5 Adapter: 1 ID: 0
Read mode : Secure
Utilize accurate stream : Yes
Defeat audio cache : Yes
Make use of C2 pointers : No
Read offset correction : 6
Overread into Lead-In and Lead-Out : No
Fill up missing offset samples with silence : Yes
Delete leading and trailing silent blocks : No
Null samples used in CRC calculations : Yes
Used interface : Native Win32 interface for Win NT & 2000
Gap handling : Appended to previous track
Used output format : User Defined Encoder
Selected bitrate : 768 kBit/s
Quality : High
Add ID3 tag : No
Command line compressor : C:\Program Files (x86)\Exact Audio Copy\Flac\flac.exe
Additional command line options : -8 -V -T "ARTIST=%artist%" -T "TITLE=%title%" -T "ALBUM=%albumtitle%" -T "DATE=%year%" -T "TRACKNUMBER=%tracknr%" -T "GENRE=%genre%" -T "PERFORMER=%albuminterpret%" -T "COMPOSER=%composer%" %haslyrics%--tag-from-file=LYRICS="%lyricsfile%"%haslyrics% -T "ALBUMARTIST=%albumartist%" -T "DISCNUMBER=%cdnumber%" -T "TOTALDISCS=%totalcds%" -T "TOTALTRACKS=%numtracks%" -T "COMMENT=%comment%" %source% -o %dest%
TOC of the extracted CD
Track | Start | Length | Start sector | End sector
---------------------------------------------------------
1 | 0:00.00 | 4:48.31 | 0 | 21630
2 | 4:48.31 | 4:43.19 | 21631 | 42874
3 | 9:31.50 | 5:09.47 | 42875 | 66096
4 | 14:41.22 | 3:40.30 | 66097 | 82626
5 | 18:21.52 | 5:22.10 | 82627 | 106786
6 | 23:43.62 | 4:12.39 | 106787 | 125725
7 | 27:56.26 | 6:26.18 | 125726 | 154693
8 | 34:22.44 | 5:32.29 | 154694 | 179622
9 | 39:54.73 | 5:25.65 | 179623 | 204062
Track 1
Filename C:\EAC rips\01 - Five Characters (In Surch of an Exit).wav
Pre-gap length 0:00:02.00
Peak level 99.1 %
Extraction speed 2.4 X
Track quality 100.0 %
Test CRC 6EF3427E
Copy CRC 6EF3427E
Track not present in AccurateRip database
Copy OK
Track 2
Filename C:\EAC rips\02 - Effrol'.wav
Peak level 100.0 %
Extraction speed 2.7 X
Track quality 100.0 %
Test CRC 64E8C6F6
Copy CRC 64E8C6F6
Track not present in AccurateRip database
Copy OK
Track 3
Filename C:\EAC rips\03 - Désoriental.wav
Peak level 98.8 %
Extraction speed 2.9 X
Track quality 100.0 %
Test CRC 5F906C9B
Copy CRC 5F906C9B
Track not present in AccurateRip database
Copy OK
Track 4
Filename C:\EAC rips\04 - Plus de poissons.wav
Peak level 99.9 %
Extraction speed 2.4 X
Track quality 99.9 %
Test CRC DC523F38
Copy CRC DC523F38
Track not present in AccurateRip database
Copy OK
Track 5
Filename C:\EAC rips\05 - Frases.wav
Peak level 100.0 %
Extraction speed 3.3 X
Track quality 100.0 %
Test CRC 664741A9
Copy CRC 664741A9
Track not present in AccurateRip database
Copy OK
Track 6
Filename C:\EAC rips\06 - Danse des lyntes.wav
Peak level 100.0 %
Extraction speed 3.4 X
Track quality 100.0 %
Test CRC D32A0B9B
Copy CRC D32A0B9B
Track not present in AccurateRip database
Copy OK
Track 7
Filename C:\EAC rips\07 - Petit Pays.wav
Peak level 100.0 %
Extraction speed 3.8 X
Track quality 100.0 %
Test CRC DF21C930
Copy CRC DF21C930
Track not present in AccurateRip database
Copy OK
Track 8
Filename C:\EAC rips\08 - Lamentation.wav
Peak level 99.9 %
Extraction speed 3.9 X
Track quality 100.0 %
Test CRC 433594AC
Copy CRC 433594AC
Track not present in AccurateRip database
Copy OK
Track 9
Filename C:\EAC rips\09 - Papagei.wav
Peak level 99.1 %
Extraction speed 4.0 X
Track quality 100.0 %
Test CRC B9D4875E
Copy CRC B9D4875E
Track not present in AccurateRip database
Copy OK
None of the tracks are present in the AccurateRip database
No errors occurred
End of status report
---- CUETools DB Plugin V2.1.4
[CTDB TOCID: WwX9NPTWfhJMQSAYWi1e8RECuO4-] disk not present in database
Submit result: WwX9NPTWfhJMQSAYWi1e8RECuO4- has been uploaded
==== Log checksum 2B4CF7001D430629A89BBB55C7C88A5A5B1DFAB39828719B475319CEA5F03693 ====
 
Содержание индексной карты (.CUE)
REM GENRE Jazz
REM DATE 2010
REM DISCID 760AA009
REM COMMENT "ExactAudioCopy v1.0b3"
PERFORMER "Yoann Loustalot, Blaise Chevallier, Émile Saubole"
TITLE "Aerophone"
FILE "01 - Five Characters (In Surch of an Exit).wav" WAVE
TRACK 01 AUDIO
TITLE "Five Characters (In Surch of an Exit)"
PERFORMER "Yoann Loustalot, Blaise Chevallier, Émile Saubole"
INDEX 01 00:00:00
FILE "02 - Effrol'.wav" WAVE
TRACK 02 AUDIO
TITLE "Effrol'"
PERFORMER "Yoann Loustalot, Blaise Chevallier, Émile Saubole"
INDEX 01 00:00:00
FILE "03 - Désoriental.wav" WAVE
TRACK 03 AUDIO
TITLE "Désoriental"
PERFORMER "Yoann Loustalot, Blaise Chevallier, Émile Saubole"
INDEX 01 00:00:00
FILE "04 - Plus de poissons.wav" WAVE
TRACK 04 AUDIO
TITLE "Plus de poissons"
PERFORMER "Yoann Loustalot, Blaise Chevallier, Émile Saubole"
INDEX 01 00:00:00
FILE "05 - Frases.wav" WAVE
TRACK 05 AUDIO
TITLE "Frases"
PERFORMER "Yoann Loustalot, Blaise Chevallier, Émile Saubole"
INDEX 01 00:00:00
FILE "06 - Danse des lyntes.wav" WAVE
TRACK 06 AUDIO
TITLE "Danse des lyntes"
PERFORMER "Yoann Loustalot, Blaise Chevallier, Émile Saubole"
INDEX 01 00:00:00
FILE "07 - Petit Pays.wav" WAVE
TRACK 07 AUDIO
TITLE "Petit Pays"
PERFORMER "Yoann Loustalot, Blaise Chevallier, Émile Saubole"
INDEX 01 00:00:00
FILE "08 - Lamentation.wav" WAVE
TRACK 08 AUDIO
TITLE "Lamentation "
PERFORMER "Yoann Loustalot, Blaise Chevallier, Émile Saubole"
INDEX 01 00:00:00
FILE "09 - Papagei.wav" WAVE
TRACK 09 AUDIO
TITLE "Papagei"
PERFORMER "Yoann Loustalot, Blaise Chevallier, Émile Saubole"
INDEX 01 00:00:00
Any questions -> support@pro-jazz.com. По всем вопросам пишите -> support@pro-jazz.com
18:38
125
Нет комментариев. Ваш будет первым!