Вы используете незарегистрированную версию компонента "Вкладки"!

Поиск

(Contemporary Jazz, Free Jazz) FAB Trio (Billy Bang, Joe Fonda, Barry Altschul) - History Of Jazz In Reverse - 2011, FLAC (tracks+.cue), lossless

(Contemporary Jazz, Free Jazz) FAB Trio (Billy Bang, Joe Fonda, Barry Altschul) - History Of Jazz In Reverse - 2011, FLAC (tracks+.cue), lossless
Треклист:
FAB Trio / History Of Jazz In Reverse
Жанр: Contemporary Jazz, Free Jazz
Страна-производитель диска: Finland
Год издания: 2011
Издатель (лейбл): TUM Records
Номер по каталогу: TUM CD 028
Аудиокодек: FLAC (*.flac)
Тип рипа: tracks+.cue
Битрейт аудио: lossless
Продолжительность: 65:29
Источник (релизер): whatcd (CorndawgJackalope)
Наличие сканов в содержимом раздачи: нет
Треклист:
1 Homeward Bound 15:43
2 Implications 9:49
3 For Bea 5:26
4 From Here To There 8:08
5 Chan Chan 7:09
6 History Of Jazz In Reverse 8:03
7 One For Don Cherry 6:06
8 From The Waters Of New Orleans 5:05
 
Лог создания рипа
X Lossless Decoder version 20120226 (139.1)
XLD extraction logfile from 2012-12-20 07:58:22 +0000
Fab Trio / History Of Jazz In Reverse
Used drive : MATSHITA DVD-R UJ-868 (revision KB19)
Ripper mode : XLD Secure Ripper
Disable audio cache : OK for the drive with a cache less than 1375KiB
Make use of C2 pointers : NO
Read offset correction : 102
Max retry count : 100
Gap status : Analyzed, Appended
TOC of the extracted CD
Track | Start | Length | Start sector | End sector
---------------------------------------------------------
1 | 00:00:00 | 15:44:47 | 0 | 70846
2 | 15:44:47 | 09:52:25 | 70847 | 115271
3 | 25:36:72 | 05:26:55 | 115272 | 139776
4 | 31:03:52 | 08:08:67 | 139777 | 176443
5 | 39:12:44 | 07:11:16 | 176444 | 208784
6 | 46:23:60 | 08:04:37 | 208785 | 245121
7 | 54:28:22 | 06:07:63 | 245122 | 272709
8 | 60:36:10 | 05:03:57 | 272710 | 295491
AccurateRip Summary
Track 01 : OK (confidence 1)
Track 02 : OK (confidence 1)
Track 03 : OK (confidence 1)
Track 04 : OK (confidence 1)
Track 05 : OK (confidence 1)
Track 06 : OK (confidence 1)
Track 07 : OK (confidence 1)
Track 08 : OK (confidence 1)
->All tracks accurately ripped.
All Tracks
Album gain : -2.72 dB
Peak : 0.976562
Statistics
Read error : 0
Jitter error (maybe fixed) : 0
Retry sector count : 0
Damaged sector count : 0
Track 01
Filename : /Users/HomeSweetHome/Music/Rippy/Fab Trio - History Of Jazz In Reverse - (2011) [FLAC]/01 Homeward Bound.flac
Pre-gap length : 00:02:00
Track gain : -3.66 dB
Peak : 0.935516
CRC32 hash (test run) : AA9EDFB5
CRC32 hash : AA9EDFB5
CRC32 hash (skip zero) : 8B879102
AccurateRip signature : DF38849C
->Accurately ripped! (confidence 1)
Statistics
Read error : 0
Jitter error (maybe fixed) : 0
Retry sector count : 0
Damaged sector count : 0
Track 02
Filename : /Users/HomeSweetHome/Music/Rippy/Fab Trio - History Of Jazz In Reverse - (2011) [FLAC]/02 Implications.flac
Pre-gap length : 00:01:53
Track gain : -4.31 dB
Peak : 0.976562
CRC32 hash (test run) : D4A9A3D6
CRC32 hash : D4A9A3D6
CRC32 hash (skip zero) : D21E8497
AccurateRip signature : 489F91A7
->Accurately ripped! (confidence 1)
Statistics
Read error : 0
Jitter error (maybe fixed) : 0
Retry sector count : 0
Damaged sector count : 0
Track 03
Filename : /Users/HomeSweetHome/Music/Rippy/Fab Trio - History Of Jazz In Reverse - (2011) [FLAC]/03 For Bea.flac
Pre-gap length : 00:03:11
Track gain : 0.88 dB
Peak : 0.940338
CRC32 hash (test run) : 32942249
CRC32 hash : 32942249
CRC32 hash (skip zero) : 4DB7D339
AccurateRip signature : C8EA2EB7
->Accurately ripped! (confidence 1)
Statistics
Read error : 0
Jitter error (maybe fixed) : 0
Retry sector count : 0
Damaged sector count : 0
Track 04
Filename : /Users/HomeSweetHome/Music/Rippy/Fab Trio - History Of Jazz In Reverse - (2011) [FLAC]/04 From Here To There.flac
Track gain : -2.77 dB
Peak : 0.916229
CRC32 hash (test run) : 23B41512
CRC32 hash : 23B41512
CRC32 hash (skip zero) : F0BB66CD
AccurateRip signature : 239CF85B
->Accurately ripped! (confidence 1)
Statistics
Read error : 0
Jitter error (maybe fixed) : 0
Retry sector count : 0
Damaged sector count : 0
Track 05
Filename : /Users/HomeSweetHome/Music/Rippy/Fab Trio - History Of Jazz In Reverse - (2011) [FLAC]/05 Chan Chan.flac
Track gain : 0.32 dB
Peak : 0.880341
CRC32 hash (test run) : 0462EB63
CRC32 hash : 0462EB63
CRC32 hash (skip zero) : EAAB69BF
AccurateRip signature : 897DA6A7
->Accurately ripped! (confidence 1)
Statistics
Read error : 0
Jitter error (maybe fixed) : 0
Retry sector count : 0
Damaged sector count : 0
Track 06
Filename : /Users/HomeSweetHome/Music/Rippy/Fab Trio - History Of Jazz In Reverse - (2011) [FLAC]/06 History Of Jazz In Reverse.flac
Track gain : -0.31 dB
Peak : 0.908081
CRC32 hash (test run) : 64FDD9B1
CRC32 hash : 64FDD9B1
CRC32 hash (skip zero) : B15281B8
AccurateRip signature : DD9A7268
->Accurately ripped! (confidence 1)
Statistics
Read error : 0
Jitter error (maybe fixed) : 0
Retry sector count : 0
Damaged sector count : 0
Track 07
Filename : /Users/HomeSweetHome/Music/Rippy/Fab Trio - History Of Jazz In Reverse - (2011) [FLAC]/07 One For Don Cherry.flac
Track gain : 2.30 dB
Peak : 0.840973
CRC32 hash (test run) : 6EC8A50E
CRC32 hash : 6EC8A50E
CRC32 hash (skip zero) : 1A2D5A4D
AccurateRip signature : 4A18A73B
->Accurately ripped! (confidence 1)
Statistics
Read error : 0
Jitter error (maybe fixed) : 0
Retry sector count : 0
Damaged sector count : 0
Track 08
Filename : /Users/HomeSweetHome/Music/Rippy/Fab Trio - History Of Jazz In Reverse - (2011) [FLAC]/08 From The Waters Of New Orleans.flac
Track gain : -1.99 dB
Peak : 0.947723
CRC32 hash (test run) : A2CE3EEF
CRC32 hash : A2CE3EEF
CRC32 hash (skip zero) : A7A36CBA
AccurateRip signature : 97B8BC9E
->Accurately ripped! (confidence 1)
Statistics
Read error : 0
Jitter error (maybe fixed) : 0
Retry sector count : 0
Damaged sector count : 0
No errors occurred
End of status report
 
Содержание индексной карты (.CUE)
TITLE "History of Jazz in Reverse"
PERFORMER "Fab Trio"
REM GENRE "Jazz"
REM DATE "2011"
REM DISCID 7E0F6308
REM REPLAYGAIN_ALBUM_GAIN -2.72 dB
REM REPLAYGAIN_ALBUM_PEAK 0.976562
FILE "01 Homeward Bound.flac" WAVE
TRACK 01 AUDIO
TITLE "Homeward Bound"
ISRC FITU91100041
REM REPLAYGAIN_TRACK_GAIN -3.66 dB
REM REPLAYGAIN_TRACK_PEAK 0.935516
INDEX 01 00:00:00
TRACK 02 AUDIO
TITLE "Implications"
ISRC FITU91100042
REM REPLAYGAIN_TRACK_GAIN -4.31 dB
REM REPLAYGAIN_TRACK_PEAK 0.976562
INDEX 00 15:42:69
FILE "02 Implications.flac" WAVE
INDEX 01 00:00:00
TRACK 03 AUDIO
TITLE "For Bea"
ISRC FITU91100043
REM REPLAYGAIN_TRACK_GAIN 0.88 dB
REM REPLAYGAIN_TRACK_PEAK 0.940338
INDEX 00 09:49:14
FILE "03 For Bea.flac" WAVE
INDEX 01 00:00:00
FILE "04 From Here To There.flac" WAVE
TRACK 04 AUDIO
TITLE "From Here to There"
ISRC FITU91100044
REM REPLAYGAIN_TRACK_GAIN -2.77 dB
REM REPLAYGAIN_TRACK_PEAK 0.916229
INDEX 01 00:00:00
FILE "05 Chan Chan.flac" WAVE
TRACK 05 AUDIO
TITLE "Chan Chan"
ISRC FITU91100045
REM REPLAYGAIN_TRACK_GAIN 0.32 dB
REM REPLAYGAIN_TRACK_PEAK 0.880341
INDEX 01 00:00:00
FILE "06 History Of Jazz In Reverse.flac" WAVE
TRACK 06 AUDIO
TITLE "History of Jazz in Reverse"
ISRC FITU91100046
REM REPLAYGAIN_TRACK_GAIN -0.31 dB
REM REPLAYGAIN_TRACK_PEAK 0.908081
INDEX 01 00:00:00
FILE "07 One For Don Cherry.flac" WAVE
TRACK 07 AUDIO
TITLE "One for Don Cherry"
ISRC FITU91100047
REM REPLAYGAIN_TRACK_GAIN 2.30 dB
REM REPLAYGAIN_TRACK_PEAK 0.840973
INDEX 01 00:00:00
FILE "08 From The Waters Of New Orleans.flac" WAVE
TRACK 08 AUDIO
TITLE "From the Waters of New Orleans"
ISRC FITU91100048
REM REPLAYGAIN_TRACK_GAIN -1.99 dB
REM REPLAYGAIN_TRACK_PEAK 0.947723
INDEX 01 00:00:00
Доп. информация: Recorded on December 13, 2005 at the Kampo Studios in New York City
 
Состав
Billy Bang violin
Joe Fonda double bass
Barry Altschul drums
Any questions -> support@pro-jazz.com. По всем вопросам пишите -> support@pro-jazz.com
13:38
173
Нет комментариев. Ваш будет первым!