Вы используете незарегистрированную версию компонента "Вкладки"!

Поиск

(Contemporary Jazz, Free Jazz) Ernest Dawkins New Horizons Ensemble - South Side Street Songs - 1993, FLAC (tracks+.cue), lossless

(Contemporary Jazz, Free Jazz) Ernest Dawkins New Horizons Ensemble - South Side Street Songs - 1993, FLAC (tracks+.cue), lossless
Треклист:
Ernest Dawkins New Horizons Ensemble / South Side Street Songs
Жанр: Contemporary Jazz, Free Jazz
Страна-производитель диска: Sweden
Год издания: 1993
Издатель (лейбл): Silkheart
Номер по каталогу: SHCD 132
Аудиокодек: FLAC (*.flac)
Тип рипа: tracks+.cue
Битрейт аудио: lossless
Продолжительность: 1:05:48
Источник (релизер): Max Monteiro
Наличие сканов в содержимом раздачи: да
Треклист:
1. Whence to Whither 14:04
2. Maghostut 8:51
3. Goldinger 6:17
4. Half-Step for Granny 3:49
5. Ashes and Dust 5:46
6. El Hajj 4:54
7. Just Is Me 13:06
8. Maghostut Two 9:00
All titles composed and arranged by Ernest Dawkins.
 
Лог создания рипа
Exact Audio Copy V1.0 beta 3 from 29. August 2011
EAC extraction logfile from 15. February 2013, 11:02
Ernest Dawkins New Horizons Ensemble / South Side Street Songs
Used drive : SlimtypeeNAU508 5 Adapter: 1 ID: 0
Read mode : Secure
Utilize accurate stream : Yes
Defeat audio cache : Yes
Make use of C2 pointers : No
Read offset correction : 6
Overread into Lead-In and Lead-Out : No
Fill up missing offset samples with silence : Yes
Delete leading and trailing silent blocks : No
Null samples used in CRC calculations : Yes
Used interface : Native Win32 interface for Win NT & 2000
Gap handling : Appended to previous track
Used output format : User Defined Encoder
Selected bitrate : 768 kBit/s
Quality : High
Add ID3 tag : No
Command line compressor : C:\Program Files (x86)\Exact Audio Copy\Flac\flac.exe
Additional command line options : -8 -V -T "ARTIST=%artist%" -T "TITLE=%title%" -T "ALBUM=%albumtitle%" -T "DATE=%year%" -T "TRACKNUMBER=%tracknr%" -T "GENRE=%genre%" -T "PERFORMER=%albuminterpret%" -T "COMPOSER=%composer%" %haslyrics%--tag-from-file=LYRICS="%lyricsfile%"%haslyrics% -T "ALBUMARTIST=%albumartist%" -T "DISCNUMBER=%cdnumber%" -T "TOTALDISCS=%totalcds%" -T "TOTALTRACKS=%numtracks%" -T "COMMENT=%comment%" %source% -o %dest%
TOC of the extracted CD
Track | Start | Length | Start sector | End sector
---------------------------------------------------------
1 | 0:00.00 | 14:03.72 | 0 | 63296
2 | 14:03.72 | 8:50.58 | 63297 | 103104
3 | 22:54.55 | 6:17.05 | 103105 | 131384
4 | 29:11.60 | 3:49.20 | 131385 | 148579
5 | 33:01.05 | 5:46.12 | 148580 | 174541
6 | 38:47.17 | 4:54.20 | 174542 | 196611
7 | 43:41.37 | 13:06.35 | 196612 | 255596
8 | 56:47.72 | 8:59.55 | 255597 | 296076
Track 1
Filename C:\EAC rips\01 - Whence to Whither.wav
Pre-gap length 0:00:02.00
Peak level 97.3 %
Extraction speed 2.7 X
Track quality 100.0 %
Test CRC 94270884
Copy CRC 94270884
Cannot be verified as accurate (confidence 2) [8EC6EEA8], AccurateRip returned [F1CB203E] (AR v2)
Copy OK
Track 2
Filename C:\EAC rips\02 - Maghostut.wav
Pre-gap length 0:00:02.37
Peak level 98.1 %
Extraction speed 3.2 X
Track quality 100.0 %
Test CRC 3BF28C37
Copy CRC 3BF28C37
Cannot be verified as accurate (confidence 2) [21D50318], AccurateRip returned [7BBEE0B5] (AR v2)
Copy OK
Track 3
Filename C:\EAC rips\03 - Goldinger.wav
Pre-gap length 0:00:00.18
Peak level 97.7 %
Extraction speed 3.5 X
Track quality 100.0 %
Test CRC EC257195
Copy CRC EC257195
Cannot be verified as accurate (confidence 2) [CBFA1640], AccurateRip returned [52BBEAFD] (AR v2)
Copy OK
Track 4
Filename C:\EAC rips\04 - Half-Step for Granny.wav
Pre-gap length 0:00:01.03
Peak level 78.5 %
Extraction speed 3.4 X
Track quality 100.0 %
Test CRC 870E3574
Copy CRC 870E3574
Cannot be verified as accurate (confidence 2) [3F9A6AC3], AccurateRip returned [DB0EE260] (AR v2)
Copy OK
Track 5
Filename C:\EAC rips\05 - Ashes and Dust.wav
Pre-gap length 0:00:01.25
Peak level 98.7 %
Extraction speed 3.7 X
Track quality 100.0 %
Test CRC 40B52B17
Copy CRC 40B52B17
Cannot be verified as accurate (confidence 2) [002E5B2A], AccurateRip returned [9A439660] (AR v2)
Copy OK
Track 6
Filename C:\EAC rips\06 - El Hajj.wav
Peak level 99.6 %
Extraction speed 3.9 X
Track quality 100.0 %
Test CRC 4E23D970
Copy CRC 4E23D970
Cannot be verified as accurate (confidence 2) [3C748AE5], AccurateRip returned [7C4C53D2] (AR v2)
Copy OK
Track 7
Filename C:\EAC rips\07 - Just Is Me.wav
Pre-gap length 0:00:00.35
Peak level 97.8 %
Extraction speed 4.2 X
Track quality 99.9 %
Test CRC 5DC443E8
Copy CRC 5DC443E8
Cannot be verified as accurate (confidence 2) [4B2BA3AC], AccurateRip returned [29D357A8] (AR v2)
Copy OK
Track 8
Filename C:\EAC rips\08 - Maghostut Two.wav
Peak level 92.1 %
Extraction speed 4.7 X
Track quality 100.0 %
Test CRC 1F8DF5B4
Copy CRC 1F8DF5B4
Cannot be verified as accurate (confidence 2) [2C88E5BA], AccurateRip returned [C9144C33] (AR v2)
Copy OK
No tracks could be verified as accurate
You may have a different pressing from the one(s) in the database
No errors occurred
End of status report
---- CUETools DB Plugin V2.1.4
[CTDB TOCID: FxLvqCRmMP7a_NFBASfMk.bMHvg-] disk not present in database
Submit result: FxLvqCRmMP7a_NFBASfMk.bMHvg- has been uploaded
==== Log checksum 308A46FB86010EFB937733C6DB6F1A2B40484EB8ECD6AD71AC1A3DE4D7A073E2 ====
 
Содержание индексной карты (.CUE)
REM GENRE Jazz
REM DATE 1993
REM DISCID 760F6B08
REM COMMENT "ExactAudioCopy v1.0b3"
PERFORMER "Ernest Dawkins New Horizons Ensemble"
TITLE "South Side Street Songs"
FILE "01 - Whence to Whither.wav" WAVE
TRACK 01 AUDIO
TITLE "Whence to Whither"
PERFORMER "Ernest Dawkins New Horizons Ensemble"
INDEX 01 00:00:00
TRACK 02 AUDIO
TITLE "Maghostut"
PERFORMER "Ernest Dawkins New Horizons Ensemble"
INDEX 00 14:01:35
FILE "02 - Maghostut.wav" WAVE
INDEX 01 00:00:00
TRACK 03 AUDIO
TITLE "Goldinger"
PERFORMER "Ernest Dawkins New Horizons Ensemble"
INDEX 00 08:50:40
FILE "03 - Goldinger.wav" WAVE
INDEX 01 00:00:00
TRACK 04 AUDIO
TITLE "Half-Step for Granny"
PERFORMER "Ernest Dawkins New Horizons Ensemble"
INDEX 00 06:16:02
FILE "04 - Half-Step for Granny.wav" WAVE
INDEX 01 00:00:00
TRACK 05 AUDIO
TITLE "Ashes and Dust"
PERFORMER "Ernest Dawkins New Horizons Ensemble"
INDEX 00 03:47:70
FILE "05 - Ashes and Dust.wav" WAVE
INDEX 01 00:00:00
FILE "06 - El Hajj.wav" WAVE
TRACK 06 AUDIO
TITLE "El Hajj"
PERFORMER "Ernest Dawkins New Horizons Ensemble"
INDEX 01 00:00:00
TRACK 07 AUDIO
TITLE "Just Is Me"
PERFORMER "Ernest Dawkins New Horizons Ensemble"
INDEX 00 04:53:60
FILE "07 - Just Is Me.wav" WAVE
INDEX 01 00:00:00
FILE "08 - Maghostut Two.wav" WAVE
TRACK 08 AUDIO
TITLE "Maghostut Two"
PERFORMER "Ernest Dawkins New Horizons Ensemble"
INDEX 01 00:00:00
 
Лог проверки качества
[CUETools log; Date: 15.02.2013 11:06:07; Version: 2.1.4]
[CTDB TOCID: FxLvqCRmMP7a_NFBASfMk.bMHvg-] found.
Track | CTDB Status
1 | (1/1) Accurately ripped
2 | (1/1) Accurately ripped
3 | (1/1) Accurately ripped
4 | (1/1) Accurately ripped
5 | (1/1) Accurately ripped
6 | (1/1) Accurately ripped
7 | (1/1) Accurately ripped
8 | (1/1) Accurately ripped
[AccurateRip ID: 0014e46b-0086d8eb-760f6b08] found.
Track [ CRC | V2 ] Status
01 [28f9594e|8ec6eea8] (0+0/2) No match
02 [e6fa4da1|21d50318] (0+0/2) No match
03 [a2107219|cbfa1640] (0+0/2) No match
04 [d7db0030|3f9a6ac3] (0+0/2) No match
05 [e1186ad2|002e5b2a] (0+0/2) No match
06 [ba79a608|3c748ae5] (0+0/2) No match
07 [7a85b774|4b2ba3ac] (0+0/2) No match
08 [df927953|2c88e5ba] (0+0/2) No match
Offsetted by 308:
01 [f1cb203e] (2/2) Accurately ripped
02 [7bbee0b5] (2/2) Accurately ripped
03 [52bbeafd] (2/2) Accurately ripped
04 [db0ee260] (2/2) Accurately ripped
05 [9a439660] (2/2) Accurately ripped
06 [7c4c53d2] (2/2) Accurately ripped
07 [29d357a8] (2/2) Accurately ripped
08 [c9144c33] (2/2) Accurately ripped
Track Peak [ CRC32 ] [W/O NULL] [ LOG ]
-- 99.6 [7BE241C7] [E771A595]
01 97.3 [94270884] [36F665AA] CRC32
02 98.1 [3BF28C37] [05C88B2B] CRC32
03 97.7 [EC257195] [C55A6862] CRC32
04 78.5 [870E3574] [A35756F7] CRC32
05 98.7 [40B52B17] [A6D7BFE1] CRC32
06 99.6 [4E23D970] [C83253CC] CRC32
07 97.8 [5DC443E8] [8EBFD51C] CRC32
08 92.1 [1F8DF5B4] [CE6543FB] CRC32
Доп. информация: This session was produced by Ernest Dawkins and recorded on January 15th and 16th, 1993, at Sparrow Sound Design Studio, Chicago, Illinois.
 
Состав
Ernest Dawkins – Alto Sax, Tenor Sax, Flute
Steve Berry – Trombone
Ameen Muhammad – Trumpet
Jeffery Parker – Electric Guitar
Yosef Ben Israel – Bass
Avreeayl Ra – Drums
Any questions -> support@pro-jazz.com. По всем вопросам пишите -> support@pro-jazz.com
09:06
174
Нет комментариев. Ваш будет первым!