Поиск

(Contemporary Jazz / Free Jazz) Dead Cat Bounce - Home Speaks to the Wandering - 2004, FLAC (tracks+.cue), lossless

(Contemporary Jazz / Free Jazz) Dead Cat Bounce - Home Speaks to the Wandering - 2004, FLAC (tracks+.cue), lossless
Треклист:
Dead Cat Bounce / Home Speaks to the Wandering
Жанр: Contemporary Jazz / Free Jazz
Страна-производитель диска (релиза): USA
Год издания: 2004
Издатель (лейбл): Innova Records
Номер по каталогу: innova 593
Страна исполнителя (группы): USA
Аудиокодек: FLAC (*.flac)
Тип рипа: tracks+.cue
Битрейт аудио: lossless
Продолжительность: 61:38 min
Источник (релизер): notfake (what.cd.com)
Наличие сканов в содержимом раздачи:
Треклист:
1. Hiram Hinckler's Shrunken Heads. 6:40
2. SOS Ankara. 5:54
3. Hepcat Revival. 5:21
4. Myopia Hunt Club. 4:28
5. Hear My Flow. 7:56
6. Cats- Is It Fish or Finite. 7:15
7. Dis You, Dear. 5:32
8. Angelic & Podlike. 6:45
9. I Once Was Vaccinated With a Phonograph Needle. 4:11
10. Department of Homeland Strategery. 7:13
 
Лог создания рипа
Exact Audio Copy V1.0 beta 3 from 29. August 2011
EAC extraction logfile from 26. January 2013, 21:14
Dead Cat Bounce / Home Speaks to the Wandering
Used drive : TSSTcorpDVD+-RW TS-H653B Adapter: 2 ID: 0
Read mode : Secure
Utilize accurate stream : Yes
Defeat audio cache : Yes
Make use of C2 pointers : No
Read offset correction : 6
Overread into Lead-In and Lead-Out : No
Fill up missing offset samples with silence : Yes
Delete leading and trailing silent blocks : No
Null samples used in CRC calculations : Yes
Used interface : Installed external ASPI interface
Gap handling : Appended to previous track
Used output format : User Defined Encoder
Selected bitrate : 1024 kBit/s
Quality : High
Add ID3 tag : No
Command line compressor : C:\Program Files (x86)\Exact Audio Copy\Flac\flac.exe
Additional command line options : -8 -V -T "ARTIST=%artist%" -T "TITLE=%title%" -T "ALBUM=%albumtitle%" -T "DATE=%year%" -T "TRACKNUMBER=%tracknr%" -T "GENRE=%genre%" -T "PERFORMER=%albuminterpret%" -T "COMPOSER=%composer%" %haslyrics%--tag-from-file=LYRICS="%lyricsfile%"%haslyrics% -T "ALBUMARTIST=%albumartist%" -T "DISCNUMBER=%cdnumber%" -T "TOTALDISCS=%totalcds%" -T "TOTALTRACKS=%numtracks%" -T "COMMENT=%comment%" %source% -o %dest%
TOC of the extracted CD
Track | Start | Length | Start sector | End sector
---------------------------------------------------------
1 | 0:00.50 | 6:42.07 | 50 | 30206
2 | 6:42.57 | 5:56.07 | 30207 | 56913
3 | 12:38.64 | 5:23.06 | 56914 | 81144
4 | 18:01.70 | 4:31.44 | 81145 | 101513
5 | 22:33.39 | 7:58.31 | 101514 | 137394
6 | 30:31.70 | 7:17.33 | 137395 | 170202
7 | 37:49.28 | 5:34.07 | 170203 | 195259
8 | 43:23.35 | 6:47.15 | 195260 | 225799
9 | 50:10.50 | 4:14.23 | 225800 | 244872
10 | 54:24.73 | 7:13.25 | 244873 | 277372
Track 1
Filename C:\Dead Cat Bounce - 2004 - Home Speaks to the Wandering\01 - Hiram Hinckler's Shrunken Heads.wav
Pre-gap length 0:00:02.66
Peak level 94.1 %
Extraction speed 4.7 X
Track quality 100.0 %
Test CRC F6369445
Copy CRC F6369445
Accurately ripped (confidence 1) [37EA028E] (AR v1)
Copy OK
Track 2
Filename C:\Dead Cat Bounce - 2004 - Home Speaks to the Wandering\02 - SOS Ankara.wav
Pre-gap length 0:00:01.58
Peak level 77.4 %
Extraction speed 5.4 X
Track quality 100.0 %
Test CRC 995FCA6B
Copy CRC 995FCA6B
Accurately ripped (confidence 1) [8086A4DA] (AR v1)
Copy OK
Track 3
Filename C:\Dead Cat Bounce - 2004 - Home Speaks to the Wandering\03 - Hepcat Revival.wav
Pre-gap length 0:00:00.94
Peak level 99.7 %
Extraction speed 5.9 X
Track quality 100.0 %
Test CRC 8062B6DD
Copy CRC 8062B6DD
Accurately ripped (confidence 1) [83105848] (AR v1)
Copy OK
Track 4
Filename C:\Dead Cat Bounce - 2004 - Home Speaks to the Wandering\04 - Myopia Hunt Club.wav
Pre-gap length 0:00:01.18
Peak level 99.7 %
Extraction speed 5.1 X
Track quality 99.9 %
Test CRC 03339307
Copy CRC 03339307
Accurately ripped (confidence 1) [4AEB3637] (AR v1)
Copy OK
Track 5
Filename C:\Dead Cat Bounce - 2004 - Home Speaks to the Wandering\05 - Hear My Flow.wav
Pre-gap length 0:00:02.58
Peak level 99.7 %
Extraction speed 6.2 X
Track quality 99.9 %
Test CRC F8F5D69B
Copy CRC F8F5D69B
Accurately ripped (confidence 1) [6A0562F4] (AR v1)
Copy OK
Track 6
Filename C:\Dead Cat Bounce - 2004 - Home Speaks to the Wandering\06 - Cats- Is It Fish or Finite.wav
Pre-gap length 0:00:01.73
Peak level 81.0 %
Extraction speed 7.5 X
Track quality 100.0 %
Test CRC DEEEFCDD
Copy CRC DEEEFCDD
Accurately ripped (confidence 1) [F5AAA2AB] (AR v1)
Copy OK
Track 7
Filename C:\Dead Cat Bounce - 2004 - Home Speaks to the Wandering\07 - Dis You, Dear.wav
Pre-gap length 0:00:01.60
Peak level 77.4 %
Extraction speed 7.7 X
Track quality 100.0 %
Test CRC C2CF3AAC
Copy CRC C2CF3AAC
Accurately ripped (confidence 1) [803E27A8] (AR v1)
Copy OK
Track 8
Filename C:\Dead Cat Bounce - 2004 - Home Speaks to the Wandering\08 - Angelic & Podlike.wav
Pre-gap length 0:00:00.98
Peak level 99.7 %
Extraction speed 8.2 X
Track quality 100.0 %
Test CRC 7D3D0713
Copy CRC 7D3D0713
Accurately ripped (confidence 1) [42F402ED] (AR v1)
Copy OK
Track 9
Filename C:\Dead Cat Bounce - 2004 - Home Speaks to the Wandering\09 - I Once Was Vaccinated With a Phonograph Needle.wav
Pre-gap length 0:00:01.60
Peak level 82.0 %
Extraction speed 6.6 X
Track quality 99.9 %
Test CRC F7D93DE9
Copy CRC F7D93DE9
Accurately ripped (confidence 1) [238D1F65] (AR v1)
Copy OK
Track 10
Filename C:\Dead Cat Bounce - 2004 - Home Speaks to the Wandering\10 - Department of Homeland Strategery.wav
Pre-gap length 0:00:01.86
Peak level 99.7 %
Extraction speed 8.9 X
Track quality 100.0 %
Test CRC 8EEC4BB8
Copy CRC 8EEC4BB8
Accurately ripped (confidence 1) [C91FB2E4] (AR v1)
Copy OK
All tracks accurately ripped
No errors occurred
End of status report
==== Log checksum D2BDCA31E554A15BFB98D0251260848780C2DD2601259FE4677B107BBE3F4CCB ====
 
Содержание индексной карты (.CUE)
REM GENRE Rock
REM DATE 2004
REM DISCID 700E720A
REM COMMENT "ExactAudioCopy v1.0b3"
PERFORMER "Dead Cat Bounce"
TITLE "Home Speaks to the Wandering"
FILE "01 - Hiram Hinckler's Shrunken Heads.wav" WAVE
TRACK 01 AUDIO
TITLE "Hiram Hinckler's Shrunken Heads"
PERFORMER "Dead Cat Bounce"
FLAGS DCP
PREGAP 00:00:50
INDEX 01 00:00:00
TRACK 02 AUDIO
TITLE "SOS Ankara"
PERFORMER "Dead Cat Bounce"
FLAGS DCP
INDEX 00 06:40:38
FILE "02 - SOS Ankara.wav" WAVE
INDEX 01 00:00:00
TRACK 03 AUDIO
TITLE "Hepcat Revival"
PERFORMER "Dead Cat Bounce"
FLAGS DCP
INDEX 00 05:55:11
FILE "03 - Hepcat Revival.wav" WAVE
INDEX 01 00:00:00
TRACK 04 AUDIO
TITLE "Myopia Hunt Club"
PERFORMER "Dead Cat Bounce"
FLAGS DCP
INDEX 00 05:21:67
FILE "04 - Myopia Hunt Club.wav" WAVE
INDEX 01 00:00:00
TRACK 05 AUDIO
TITLE "Hear My Flow"
PERFORMER "Dead Cat Bounce"
FLAGS DCP
INDEX 00 04:29:00
FILE "05 - Hear My Flow.wav" WAVE
INDEX 01 00:00:00
TRACK 06 AUDIO
TITLE "Cats: Is It Fish or Finite?"
PERFORMER "Dead Cat Bounce"
FLAGS DCP
INDEX 00 07:56:51
FILE "06 - Cats- Is It Fish or Finite.wav" WAVE
INDEX 01 00:00:00
TRACK 07 AUDIO
TITLE "Dis You, Dear"
PERFORMER "Dead Cat Bounce"
FLAGS DCP
INDEX 00 07:15:63
FILE "07 - Dis You, Dear.wav" WAVE
INDEX 01 00:00:00
TRACK 08 AUDIO
TITLE "Angelic & Podlike"
PERFORMER "Dead Cat Bounce"
FLAGS DCP
INDEX 00 05:33:08
FILE "08 - Angelic & Podlike.wav" WAVE
INDEX 01 00:00:00
TRACK 09 AUDIO
TITLE "I Once Was Vaccinated With a Phonograph Needle"
PERFORMER "Dead Cat Bounce"
FLAGS DCP
INDEX 00 06:45:45
FILE "09 - I Once Was Vaccinated With a Phonograph Needle.wav" WAVE
INDEX 01 00:00:00
TRACK 10 AUDIO
TITLE "Department of Homeland Strategery"
PERFORMER "Dead Cat Bounce"
FLAGS DCP
INDEX 00 04:12:33
FILE "10 - Department of Homeland Strategery.wav" WAVE
INDEX 01 00:00:00
 
Лог проверки качества
-----------------------
DON'T MODIFY THIS FILE
-----------------------
PERFORMER: auCDtect Task Manager, ver. 1.6.0 RC1 build 1.6.0.1
Copyright (c) 2008-2010 y-soft. All rights reserved
http://y-soft.org
ANALYZER: auCDtect: CD records authenticity detector, version 0.8.2
Copyright (c) 2004 Oleg Berngardt. All rights reserved.
Copyright (c) 2004 Alexander Djourik. All rights reserved.
FILE: 01 - Hiram Hinckler's Shrunken Heads.flac
Size: 50199953 Hash: 91788D16B0878D66004FF833153A0E99 Accuracy: -m0
Conclusion: CDDA 100%
Signature: 5CE7308C3166766F9F93B9F13D85AB9166B253D8
FILE: 02 - SOS Ankara.flac
Size: 41823278 Hash: 55403419720455633EC31BEAD258B7FD Accuracy: -m0
Conclusion: CDDA 100%
Signature: BDA083B7749D1DFE36293C2F4922D241F89FD3BA
FILE: 03 - Hepcat Revival.flac
Size: 41285202 Hash: 182A6DCE5C669690B68AD26E96D2DA56 Accuracy: -m0
Conclusion: CDDA 100%
Signature: 5971C9409FE9470E890866FDF883E1677656F9CD
FILE: 04 - Myopia Hunt Club.flac
Size: 32799625 Hash: 75E57552EEC83604528D9B03680CCA9A Accuracy: -m0
Conclusion: CDDA 100%
Signature: 246241D98B5078D8670C03B01219FBFDBB215FA8
FILE: 05 - Hear My Flow.flac
Size: 57335758 Hash: A2DFF2F9414F1CBAE13BAE2AD45D7C93 Accuracy: -m0
Conclusion: CDDA 100%
Signature: 69381B5869EAEA6C6D45E49FD90DA47105946D07
FILE: 06 - Cats- Is It Fish or Finite.flac
Size: 52226162 Hash: B13E39B8EB38CA3A9B84C0B07863A6E2 Accuracy: -m0
Conclusion: CDDA 100%
Signature: A3671B8CD527E9854A3B3D4ECAAA7CFED290F7B0
FILE: 07 - Dis You, Dear.flac
Size: 39530410 Hash: C11E7D188AF1CAB40B0424C05AD91904 Accuracy: -m0
Conclusion: CDDA 100%
Signature: 58E2AAE92D55DD7AE9BD2D85090B76575A321F65
FILE: 08 - Angelic & Podlike.flac
Size: 51107014 Hash: 4BEB461E170D46EA5A54154E6716533A Accuracy: -m0
Conclusion: CDDA 100%
Signature: 33D531BBD200205A559DA25EBC93BAD6D14462F1
FILE: 09 - I Once Was Vaccinated With a Phonograph Needle.flac
Size: 29117629 Hash: 5E3DA0D6B6BCFA07314AACC944690C3A Accuracy: -m0
Conclusion: CDDA 100%
Signature: 24C417EA6D7DC23456D34AF1D90D07A1492B6F43
FILE: 10 - Department of Homeland Strategery.flac
Size: 51866358 Hash: 677ED412DDF69137CBE12D1CDCD4AB27 Accuracy: -m0
Conclusion: CDDA 99%
Signature: F245ED367935A787103E82932816C2E9E0865353
 
Об альбоме (сборнике)
Composed By Matt Steckler
Engineer: Brian Brown, Craig Welsch
Liner Notes: Fred Bouchard
Mastered by Alex Perialas, Mike Parker (15)
Producer by Matt Steckler, Craig Welsch
 
Состав
– Matt Steckler / Soprano Saxophone, Alto Saxophone, Tenor Saxophone, Flute, Whistle, Voice
– Jared Sims / Soprano Saxophone, Tenor Saxophone, Clarinet
– Charlie Kohlhase / Alto Saxophone, Baritone Saxophone
– Drew Sayers / Alto Saxophone, Tenor Saxophone, Baritone Saxophone
– Arie Werbrouck / Acoustic Bass
– Bill Carbone / Drums, Percussion
21:15
255
Нет комментариев. Ваш будет первым!