Вы используете незарегистрированную версию компонента "Вкладки"!

Поиск

(Contemporary Jazz, Free Jazz) [CD] Fredrik Ljungkvist (Klas Nevrin, Mattias Welin, Jon Falt, Per-Ake Holmlander) - Yun Kan 12345 - 2004, FLAC (tracks+.cue), lossless

(Contemporary Jazz, Free Jazz) [CD] Fredrik Ljungkvist (Klas Nevrin, Mattias Welin, Jon Falt, Per-Ake Holmlander) - Yun Kan 12345 - 2004, FLAC (tracks+.cue), lossless
Треклист:
Fredrik Ljungkvist / Yun Kan 12345
Жанр: Contemporary Jazz, Free Jazz
Носитель: CD
Страна-производитель диска (релиза): Sweden
Год издания: 2004
Издатель (лейбл): Caprice Records
Номер по каталогу: CAP 21690
Аудиокодек: FLAC (*.flac)
Тип рипа: tracks+.cue
Битрейт аудио: lossless
Продолжительность: 61:35
Источник (релизер): cd
Наличие сканов в содержимом раздачи: нет
Треклист:
1 King Kolax 6:59
2 Jag Vet Inte 5:37
3 Sunburst 7:02
4 Eddie A. 5:13
5 Västgötaklimax 5:24
6 Birger 7:16
7 Ballad För Eva 7:06
8 Abraxas 6:50
9 Rumi 6:50
10 Man About Town 3:00
 
Лог создания рипа
Exact Audio Copy V1.0 beta 3 from 29. August 2011
EAC extraction logfile from 4. December 2014, 13:59
Fredrik Ljungkvist / Yun kan 12345
Used drive : ASUS DRW-24F1ST a Adapter: 0 ID: 0
Read mode : Secure
Utilize accurate stream : Yes
Defeat audio cache : Yes
Make use of C2 pointers : No
Read offset correction : 6
Overread into Lead-In and Lead-Out : No
Fill up missing offset samples with silence : Yes
Delete leading and trailing silent blocks : No
Null samples used in CRC calculations : Yes
Used interface : Native Win32 interface for Win NT & 2000
Gap handling : Appended to previous track
Used output format : User Defined Encoder
Selected bitrate : 320 kBit/s
Quality : High
Add ID3 tag : No
Command line compressor : D:\Programs\Exact Audio Copy\Flac\flac.exe
Additional command line options : -V -8 -T "Genre=%genre%" -T "Artist=%artist%" -T "Title=%title%" -T "Album=%albumtitle%" -T "Date=%year%" -T "Tracknumber=%tracknr%" -T "Comment=%comment%" %source%
TOC of the extracted CD
Track | Start | Length | Start sector | End sector
---------------------------------------------------------
1 | 0:00.00 | 7:00.47 | 0 | 31546
2 | 7:00.47 | 5:37.53 | 31547 | 56874
3 | 12:38.25 | 7:05.55 | 56875 | 88804
4 | 19:44.05 | 5:13.67 | 88805 | 112346
5 | 24:57.72 | 5:25.08 | 112347 | 136729
6 | 30:23.05 | 7:19.32 | 136730 | 169686
7 | 37:42.37 | 7:08.72 | 169687 | 201858
8 | 44:51.34 | 6:50.28 | 201859 | 232636
9 | 51:41.62 | 6:53.15 | 232637 | 263626
10 | 58:35.02 | 3:00.68 | 263627 | 277194
Track 1
Filename D:\EAC\01 King Kolax.wav
Pre-gap length 0:00:02.00
Peak level 100.0 %
Extraction speed 4.5 X
Track quality 99.9 %
Test CRC 9357FC2F
Copy CRC 9357FC2F
Copy OK
Track 2
Filename D:\EAC\02 Jag vet inte.wav
Pre-gap length 0:00:01.35
Peak level 94.8 %
Extraction speed 5.4 X
Track quality 100.0 %
Test CRC FE147BC0
Copy CRC FE147BC0
Copy OK
Track 3
Filename D:\EAC\03 Sunburst.wav
Peak level 94.4 %
Extraction speed 6.1 X
Track quality 100.0 %
Test CRC FAF63827
Copy CRC FAF63827
Copy OK
Track 4
Filename D:\EAC\04 Eddie A..wav
Pre-gap length 0:00:03.43
Peak level 97.0 %
Extraction speed 6.4 X
Track quality 100.0 %
Test CRC 472BCF28
Copy CRC 472BCF28
Copy OK
Track 5
Filename D:\EAC\05 Vastgotaklimax.wav
Peak level 99.9 %
Extraction speed 6.9 X
Track quality 100.0 %
Test CRC B326F31C
Copy CRC B326F31C
Copy OK
Track 6
Filename D:\EAC\06 Birger.wav
Peak level 99.9 %
Extraction speed 7.6 X
Track quality 100.0 %
Test CRC 152AAEDE
Copy CRC 152AAEDE
Copy OK
Track 7
Filename D:\EAC\07 Ballad for Eva.wav
Pre-gap length 0:00:02.42
Peak level 97.5 %
Extraction speed 7.5 X
Track quality 99.9 %
Test CRC EFF04E9C
Copy CRC EFF04E9C
Copy OK
Track 8
Filename D:\EAC\08 Abraxas.wav
Pre-gap length 0:00:02.42
Peak level 96.3 %
Extraction speed 7.9 X
Track quality 99.9 %
Test CRC 52BBEC2E
Copy CRC 52BBEC2E
Copy OK
Track 9
Filename D:\EAC\09 Rumi.wav
Peak level 99.2 %
Extraction speed 8.7 X
Track quality 100.0 %
Test CRC 6CCA245B
Copy CRC 6CCA245B
Copy OK
Track 10
Filename D:\EAC\10 Man about town.wav
Pre-gap length 0:00:02.37
Peak level 46.2 %
Extraction speed 6.9 X
Track quality 99.9 %
Test CRC 8DCB79C2
Copy CRC 8DCB79C2
Copy OK
No errors occurred
End of status report
==== Log checksum 13CAF7B986FB065B4D3902E52DBCBF12A6C462961EA18C0806EA1A978AEAA981 ====
 
Содержание индексной карты (.CUE)
REM GENRE Jazz
REM DATE 2004
REM DISCID 870E6F0A
REM COMMENT "ExactAudioCopy v1.0b3"
PERFORMER "Fredrik Ljungkvist"
TITLE "Yun kan 12345"
FILE "01 King Kolax.wav" WAVE
TRACK 01 AUDIO
TITLE "King Kolax"
PERFORMER "Fredrik Ljungkvist"
ISRC SEAGA0402010
INDEX 01 00:00:00
TRACK 02 AUDIO
TITLE "Jag vet inte"
PERFORMER "Fredrik Ljungkvist"
ISRC SEAGA0402020
INDEX 00 06:59:12
FILE "02 Jag vet inte.wav" WAVE
INDEX 01 00:00:00
FILE "03 Sunburst.wav" WAVE
TRACK 03 AUDIO
TITLE "Sunburst"
PERFORMER "Fredrik Ljungkvist"
ISRC SEAGA0402030
INDEX 01 00:00:00
TRACK 04 AUDIO
TITLE "Eddie A."
PERFORMER "Fredrik Ljungkvist"
ISRC SEAGA0402040
INDEX 00 07:02:12
FILE "04 Eddie A..wav" WAVE
INDEX 01 00:00:00
FILE "05 Vastgotaklimax.wav" WAVE
TRACK 05 AUDIO
TITLE "Vastgotaklimax"
PERFORMER "Fredrik Ljungkvist"
ISRC SEAGA0402050
INDEX 01 00:00:00
FILE "06 Birger.wav" WAVE
TRACK 06 AUDIO
TITLE "Birger"
PERFORMER "Fredrik Ljungkvist"
ISRC SEAGA0402060
INDEX 01 00:00:00
TRACK 07 AUDIO
TITLE "Ballad for Eva"
PERFORMER "Fredrik Ljungkvist"
ISRC SEAGA0402070
INDEX 00 07:16:65
FILE "07 Ballad for Eva.wav" WAVE
INDEX 01 00:00:00
TRACK 08 AUDIO
TITLE "Abraxas"
PERFORMER "Fredrik Ljungkvist"
ISRC SEAGA0402080
INDEX 00 07:06:30
FILE "08 Abraxas.wav" WAVE
INDEX 01 00:00:00
FILE "09 Rumi.wav" WAVE
TRACK 09 AUDIO
TITLE "Rumi"
PERFORMER "Fredrik Ljungkvist"
ISRC SEAGA0402090
INDEX 01 00:00:00
TRACK 10 AUDIO
TITLE "Man about town"
PERFORMER "Fredrik Ljungkvist"
ISRC SEAGA0402100
INDEX 00 06:50:53
FILE "10 Man about town.wav" WAVE
INDEX 01 00:00:00
Доп. информация: Recorded and mixed at ATLANTIS STUDIO December 2003.
 
Состав
Double Bass – Mattias Welin
Drums – Jon Fält
Piano, Zither – Klas Nevrin
Tenor Saxophone, Alto Saxophone, Baritone Saxophone, Clarinet – Fredrik Ljungkvist
Tuba – Per-Åke Holmlander
По всем вопросам пишите личное сообщение пользователю M0p94ok.
06:47
116
Нет комментариев. Ваш будет первым!