Вы используете незарегистрированную версию компонента "Вкладки"!

Поиск

(Contemporary Jazz, Free Jazz) [CD] Daniele D'Agaro Adriatics Orchestra (Tobias Delius, Han Bennink, Sean Bergin, Wolter Wierbos, Mauro Ottolini....) - Mountains, Love & Humour - 2012, FLAC (tracks+.cue), lossless

(Contemporary Jazz, Free Jazz) [CD] Daniele D'Agaro Adriatics Orchestra (Tobias Delius, Han Bennink, Sean Bergin, Wolter Wierbos, Mauro Ottolini....) - Mountains, Love & Humour - 2012, FLAC (tracks+.cue), lossless
Треклист:
Daniele D'Agaro Adriatics Orchestra / Mountains, Love & Humour
Жанр: Contemporary Jazz, Free Jazz
Носитель: CD
Страна-производитель диска: Italy
Год издания: 2012
Издатель (лейбл): Artesuono
Номер по каталогу: art 96
Аудиокодек: FLAC (*.flac)
Тип рипа: tracks+.cue
Битрейт аудио: lossless
Продолжительность: 75:20
Источник (релизер): whatcd (cifelius)
Наличие сканов в содержимом раздачи: да
Треклист:
1 Kilwa 7:23
2 Portrait Of Two Shepherds 6:51
3 Nediska Fara 4:20
4 My Donkey Has Long Ears 7:19
5 Otto's (Cara) Van 5:46
6 Long Armed Woman 4:45
7 Let's Have Another One 6:22
8 Rotie 6:43
9 Don't Pretend 6:53
10 Family's Ties 3:13
11 Booker T 8:24
12 Fonkitong 7:10
 
Лог создания рипа
Exact Audio Copy V1.0 beta 2 from 29. April 2011
EAC extraction logfile from 16. February 2013, 16:34
Daniele D'Agaro Adriatics Orchestra / Mountains, Love & Humour
Used drive : HL-DT-STDVDRAM GH24NS50 Adapter: 0 ID: 0
Read mode : Secure
Utilize accurate stream : Yes
Defeat audio cache : Yes
Make use of C2 pointers : No
Read offset correction : 667
Overread into Lead-In and Lead-Out : No
Fill up missing offset samples with silence : Yes
Delete leading and trailing silent blocks : No
Null samples used in CRC calculations : Yes
Used interface : Installed external ASPI interface
Gap handling : Appended to previous track
Used output format : User Defined Encoder
Selected bitrate : 768 kBit/s
Quality : High
Add ID3 tag : No
Command line compressor : E:\Programmi\Exact Audio Copy\Flac\flac.exe
Additional command line options : -8 -V -T "ARTIST=%artist%" -T "TITLE=%title%" -T "ALBUM=%albumtitle%" -T "DATE=%year%" -T "TRACKNUMBER=%tracknr%" -T "TOTALTRACKS=%numtracks%" -T "GENRE=%genre%" -T "ALBUMARTIST=%albumartist%" -T "ALBUM ARTIST=%albumartist%
TOC of the extracted CD
Track | Start | Length | Start sector | End sector
---------------------------------------------------------
1 | 0:00.00 | 7:23.55 | 0 | 33279
2 | 7:23.55 | 6:51.03 | 33280 | 64107
3 | 14:14.58 | 4:22.37 | 64108 | 83794
4 | 18:37.20 | 7:19.34 | 83795 | 116753
5 | 25:56.54 | 5:46.30 | 116754 | 142733
6 | 31:43.09 | 4:45.03 | 142734 | 164111
7 | 36:28.12 | 6:22.50 | 164112 | 192811
8 | 42:50.62 | 6:45.43 | 192812 | 223229
9 | 49:36.30 | 6:55.01 | 223230 | 254355
10 | 56:31.31 | 3:13.37 | 254356 | 268867
11 | 59:44.68 | 8:24.60 | 268868 | 306727
12 | 68:09.53 | 7:10.34 | 306728 | 339011
Track 1
Filename C:\Documents and Settings\user\Desktop\Daniele D'Agaro Adriatics Orchestra - Mountains, Love & Humour (2012) [FLAC] {artesuono}\01 - Kilwa.wav
Pre-gap length 0:00:02.00
Peak level 96.6 %
Extraction speed 1.2 X
Track quality 100.0 %
Test CRC 93A56242
Copy CRC 93A56242
Track not present in AccurateRip database
Copy OK
Track 2
Filename C:\Documents and Settings\user\Desktop\Daniele D'Agaro Adriatics Orchestra - Mountains, Love & Humour (2012) [FLAC] {artesuono}\02 - Portrait of Two Sheperds.wav
Peak level 86.4 %
Extraction speed 1.3 X
Track quality 99.9 %
Test CRC D4FC553C
Copy CRC D4FC553C
Track not present in AccurateRip database
Copy OK
Track 3
Filename C:\Documents and Settings\user\Desktop\Daniele D'Agaro Adriatics Orchestra - Mountains, Love & Humour (2012) [FLAC] {artesuono}\03 - Nediska Fara.wav
Peak level 96.6 %
Extraction speed 1.5 X
Track quality 100.0 %
Test CRC 0CF154D1
Copy CRC 0CF154D1
Track not present in AccurateRip database
Copy OK
Track 4
Filename C:\Documents and Settings\user\Desktop\Daniele D'Agaro Adriatics Orchestra - Mountains, Love & Humour (2012) [FLAC] {artesuono}\04 - My Donkey Has Long Ears.wav
Pre-gap length 0:00:02.00
Peak level 96.6 %
Extraction speed 1.7 X
Track quality 100.0 %
Test CRC EB5E9B9C
Copy CRC EB5E9B9C
Track not present in AccurateRip database
Copy OK
Track 5
Filename C:\Documents and Settings\user\Desktop\Daniele D'Agaro Adriatics Orchestra - Mountains, Love & Humour (2012) [FLAC] {artesuono}\05 - Otto's (cara) van.wav
Peak level 96.6 %
Extraction speed 1.8 X
Track quality 100.0 %
Test CRC 7798ED21
Copy CRC 7798ED21
Track not present in AccurateRip database
Copy OK
Track 6
Filename C:\Documents and Settings\user\Desktop\Daniele D'Agaro Adriatics Orchestra - Mountains, Love & Humour (2012) [FLAC] {artesuono}\06 - Long Armed Woman.wav
Peak level 96.6 %
Extraction speed 1.8 X
Track quality 100.0 %
Test CRC 06FF340F
Copy CRC 06FF340F
Track not present in AccurateRip database
Copy OK
Track 7
Filename C:\Documents and Settings\user\Desktop\Daniele D'Agaro Adriatics Orchestra - Mountains, Love & Humour (2012) [FLAC] {artesuono}\07 - Let's Have Another One.wav
Peak level 96.6 %
Extraction speed 2.0 X
Track quality 100.0 %
Test CRC 344AFFB5
Copy CRC 344AFFB5
Track not present in AccurateRip database
Copy OK
Track 8
Filename C:\Documents and Settings\user\Desktop\Daniele D'Agaro Adriatics Orchestra - Mountains, Love & Humour (2012) [FLAC] {artesuono}\08 - Rotie.wav
Peak level 96.6 %
Extraction speed 2.1 X
Track quality 100.0 %
Test CRC B87CC4FB
Copy CRC B87CC4FB
Track not present in AccurateRip database
Copy OK
Track 9
Filename C:\Documents and Settings\user\Desktop\Daniele D'Agaro Adriatics Orchestra - Mountains, Love & Humour (2012) [FLAC] {artesuono}\09 - Don't Pretend.wav
Pre-gap length 0:00:02.00
Peak level 96.6 %
Extraction speed 2.1 X
Track quality 99.9 %
Test CRC 61791EE5
Copy CRC 61791EE5
Track not present in AccurateRip database
Copy OK
Track 10
Filename C:\Documents and Settings\user\Desktop\Daniele D'Agaro Adriatics Orchestra - Mountains, Love & Humour (2012) [FLAC] {artesuono}\10 - Family's Ties.wav
Pre-gap length 0:00:02.00
Peak level 96.6 %
Extraction speed 2.1 X
Track quality 100.0 %
Test CRC 33AF59D7
Copy CRC 33AF59D7
Track not present in AccurateRip database
Copy OK
Track 11
Filename C:\Documents and Settings\user\Desktop\Daniele D'Agaro Adriatics Orchestra - Mountains, Love & Humour (2012) [FLAC] {artesuono}\11 - Booker T.wav
Peak level 96.6 %
Extraction speed 2.5 X
Track quality 100.0 %
Test CRC D8F3CB4E
Copy CRC D8F3CB4E
Track not present in AccurateRip database
Copy OK
Track 12
Filename C:\Documents and Settings\user\Desktop\Daniele D'Agaro Adriatics Orchestra - Mountains, Love & Humour (2012) [FLAC] {artesuono}\12 - Fonkitong.wav
Peak level 96.6 %
Extraction speed 2.6 X
Track quality 100.0 %
Test CRC E4B4F4CF
Copy CRC E4B4F4CF
Track not present in AccurateRip database
Copy OK
None of the tracks are present in the AccurateRip database
No errors occurred
End of status report
==== Log checksum 2E34636ACE3B5E4874F9D124010F2366D4248A65690E5ED4A3341258B78ADB33 ====
 
Содержание индексной карты (.CUE)
REM GENRE Jazz
REM DATE 2012
REM DISCID BC11A80C
REM COMMENT "ExactAudioCopy v1.0b2"
PERFORMER "Daniele D'Agaro Adriatics Orchestra"
TITLE "Daniele D'Agaro Adriatics Orchestra - MOUNTAINS, LOVE & HUMOUR -"
FILE "01 - Kilwa.wav" WAVE
TRACK 01 AUDIO
TITLE "Kilwa"
PERFORMER "Daniele D'Agaro Adriatics Orchestra"
INDEX 01 00:00:00
FILE "02 - Portrait of Two Sheperds.wav" WAVE
TRACK 02 AUDIO
TITLE "Portrait of Two Sheperds"
PERFORMER "Daniele D'Agaro Adriatics Orchestra"
INDEX 01 00:00:00
FILE "03 - Nediska Fara.wav" WAVE
TRACK 03 AUDIO
TITLE "Nediska Fara"
PERFORMER "Daniele D'Agaro Adriatics Orchestra"
INDEX 01 00:00:00
TRACK 04 AUDIO
TITLE "My Donkey Has Long Ears"
PERFORMER "Daniele D'Agaro Adriatics Orchestra"
INDEX 00 04:20:37
FILE "04 - My Donkey Has Long Ears.wav" WAVE
INDEX 01 00:00:00
FILE "05 - Otto's (cara) van.wav" WAVE
TRACK 05 AUDIO
TITLE "Otto's (cara) van"
PERFORMER "Daniele D'Agaro Adriatics Orchestra"
INDEX 01 00:00:00
FILE "06 - Long Armed Woman.wav" WAVE
TRACK 06 AUDIO
TITLE "Long Armed Woman"
PERFORMER "Daniele D'Agaro Adriatics Orchestra"
INDEX 01 00:00:00
FILE "07 - Let's Have Another One.wav" WAVE
TRACK 07 AUDIO
TITLE "Let's Have Another One"
PERFORMER "Daniele D'Agaro Adriatics Orchestra"
INDEX 01 00:00:00
FILE "08 - Rotie.wav" WAVE
TRACK 08 AUDIO
TITLE "Rotie"
PERFORMER "Daniele D'Agaro Adriatics Orchestra"
INDEX 01 00:00:00
TRACK 09 AUDIO
TITLE "Don't Pretend"
PERFORMER "Daniele D'Agaro Adriatics Orchestra"
INDEX 00 06:43:43
FILE "09 - Don't Pretend.wav" WAVE
INDEX 01 00:00:00
TRACK 10 AUDIO
TITLE "Family's Ties"
PERFORMER "Daniele D'Agaro Adriatics Orchestra"
INDEX 00 06:53:01
FILE "10 - Family's Ties.wav" WAVE
INDEX 01 00:00:00
FILE "11 - Booker T.wav" WAVE
TRACK 11 AUDIO
TITLE "Booker T"
PERFORMER "Daniele D'Agaro Adriatics Orchestra"
INDEX 01 00:00:00
FILE "12 - Fonkitong.wav" WAVE
TRACK 12 AUDIO
TITLE "Fonkitong"
PERFORMER "Daniele D'Agaro Adriatics Orchestra"
INDEX 01 00:00:00
Доп. информация: Recorded live during the festival "I Suoni della Montagna" - Comeglians (Udine) - Italy
 
Состав
Banjo – Denis Biason (tracks: 4, 8)
Clarinet, Tenor Saxophone – Daniele D'Agaro, Tobias Delius
Djembe – Naby Kamarà (tracks: 12)
Double Bass – Alessandro Turchet (tracks: 4 to 6), Stefano Senni
Drums – Han Bennink
Kalimba [Kongomà] – Ousmane Bangura (tracks: 12)
Marimba, Balafon, Percussion – Saverio Tasca
Organ – Bruno Marini
Recorded By [Assistant] – Giacomo Barboni, Giulio Gallo
Recorded By, Mixed By, Mastered By – Stefano Amerio
Soprano Saxophone, Alto Saxophone, Tenor Saxophone, Concertina, Flute [Flutes], Vocals – Sean Bergin
Trombone – Wolter Wierbos (tracks: 11, 12)
Trombone, Flugelhorn [Tenor Flugelhorn], Conch [Shells] – Mauro Ottolini
Trumpet, Flugelhorn – Davide Ghidoni
По всем вопросам пишите личное сообщение пользователю M0p94ok.
06:27
184
Нет комментариев. Ваш будет первым!