Вы используете незарегистрированную версию компонента "Вкладки"!

Поиск

(Contemporary Jazz, Free Jazz, Big Band) [CD] Henrik Otto Donner & TUMO - And It Happened... - 2013, FLAC (tracks+.cue), lossless

(Contemporary Jazz, Free Jazz, Big Band) [CD] Henrik Otto Donner & TUMO - And It Happened... - 2013, FLAC (tracks+.cue), lossless
Треклист:
Henrik Otto Donner & TUMO / And It Happened...
Жанр: Contemporary Jazz, Free Jazz, Big Band
Носитель: CD
Страна-производитель диска (релиза): Finland
Год издания: 2013
Издатель (лейбл): TUM Records
Номер по каталогу: TUM CD 039
Страна исполнителя (группы): Finland
Аудиокодек: FLAC (*.flac)
Тип рипа: tracks+.cue
Битрейт аудио: lossless
Продолжительность: 00:50:28
Источник (релизер): what.cd (Negative_Creep)
Наличие сканов в содержимом раздачи: нет
Треклист:
--------------------
01. Junnuda (5:00)
02. Close Your Eyes (3:30)
03. Entreaty (2:47)
04. The First Summer (2:59)
05. Have Me, Hold Me (11:16)
06. These Are the Days (4:09)
07. And It Happened... (15:55)
08. For Friends and Relatives (4:48)
--------------------------------------
 
Лог создания рипа
Exact Audio Copy V1.0 beta 2 from 29. April 2011
EAC extraction logfile from 17. July 2014, 21:09
Henrik Otto Donner & TUMO / And It Happened...
Used drive : TSSTcorpCDDVDW SH-S223L Adapter: 1 ID: 1
Read mode : Secure
Utilize accurate stream : Yes
Defeat audio cache : Yes
Make use of C2 pointers : No
Read offset correction : 6
Overread into Lead-In and Lead-Out : No
Fill up missing offset samples with silence : Yes
Delete leading and trailing silent blocks : No
Null samples used in CRC calculations : Yes
Used interface : Native Win32 interface for Win NT & 2000
Gap handling : Appended to previous track
Used output format : User Defined Encoder
Selected bitrate : 896 kBit/s
Quality : High
Add ID3 tag : No
Command line compressor : C:\Program Files (x86)\Exact Audio Copy\Flac\flac.exe
Additional command line options : -8 -V -T "ARTIST=%artist%" -T "TITLE=%title%" -T "ALBUM=%albumtitle%" -T "DATE=%year%" -T "TRACKNUMBER=%tracknr%" -T "GENRE=%genre%" -T "PERFORMER=%albuminterpret%" -T "COMPOSER=%composer%" %haslyrics%--tag-from-file=LYRIC
TOC of the extracted CD
Track | Start | Length | Start sector | End sector
---------------------------------------------------------
1 | 0:00.00 | 5:00.41 | 0 | 22540
2 | 5:00.41 | 3:30.58 | 22541 | 38348
3 | 8:31.24 | 2:47.27 | 38349 | 50900
4 | 11:18.51 | 2:59.54 | 50901 | 64379
5 | 14:18.30 | 11:16.12 | 64380 | 115091
6 | 25:34.42 | 4:09.34 | 115092 | 133800
7 | 29:44.01 | 15:55.19 | 133801 | 205444
8 | 45:39.20 | 4:48.66 | 205445 | 227110
Track 1
Filename M:\Music\What 8\Henrik Otto Donner & TUMO - And It Happened... (2013) [FLAC]\01 - Junnudå q.wav
Pre-gap length 0:00:02.00
Peak level 83.6 %
Extraction speed 1.8 X
Track quality 100.0 %
Test CRC 1B7A81A1
Copy CRC 1B7A81A1
Accurately ripped (confidence 1) [A7D01735] (AR v1)
Copy OK
Track 2
Filename M:\Music\What 8\Henrik Otto Donner & TUMO - And It Happened... (2013) [FLAC]\02 - Close Your Eyes.wav
Pre-gap length 0:00:04.72
Peak level 91.0 %
Extraction speed 1.9 X
Track quality 100.0 %
Test CRC 8068CDD5
Copy CRC 8068CDD5
Accurately ripped (confidence 1) [2E44A7DB] (AR v1)
Copy OK
Track 3
Filename M:\Music\What 8\Henrik Otto Donner & TUMO - And It Happened... (2013) [FLAC]\03 - Entreaty.wav
Pre-gap length 0:00:04.56
Peak level 99.1 %
Extraction speed 1.9 X
Track quality 100.0 %
Test CRC 55843251
Copy CRC 55843251
Accurately ripped (confidence 1) [5A3F8E4C] (AR v1)
Copy OK
Track 4
Filename M:\Music\What 8\Henrik Otto Donner & TUMO - And It Happened... (2013) [FLAC]\04 - The First Summer.wav
Pre-gap length 0:00:04.53
Peak level 68.1 %
Extraction speed 2.1 X
Track quality 100.0 %
Test CRC 544AD974
Copy CRC 544AD974
Accurately ripped (confidence 1) [47935F50] (AR v1)
Copy OK
Track 5
Filename M:\Music\What 8\Henrik Otto Donner & TUMO - And It Happened... (2013) [FLAC]\05 - Have Me, Hold Me.wav
Pre-gap length 0:00:04.93
Peak level 99.1 %
Extraction speed 2.7 X
Track quality 100.0 %
Test CRC 840A206D
Copy CRC 840A206D
Accurately ripped (confidence 1) [2D40CF7E] (AR v1)
Copy OK
Track 6
Filename M:\Music\What 8\Henrik Otto Donner & TUMO - And It Happened... (2013) [FLAC]\06 - These Are The Days.wav
Pre-gap length 0:00:04.58
Peak level 92.4 %
Extraction speed 2.7 X
Track quality 100.0 %
Test CRC 1377A859
Copy CRC 1377A859
Accurately ripped (confidence 1) [F60C1DE4] (AR v1)
Copy OK
Track 7
Filename M:\Music\What 8\Henrik Otto Donner & TUMO - And It Happened... (2013) [FLAC]\07 - And It Happened….wav
Pre-gap length 0:00:04.61
Peak level 98.6 %
Extraction speed 2.8 X
Track quality 100.0 %
Test CRC 3F96FFD1
Copy CRC 3F96FFD1
Accurately ripped (confidence 1) [A9206C4B] (AR v1)
Copy OK
Track 8
Filename M:\Music\What 8\Henrik Otto Donner & TUMO - And It Happened... (2013) [FLAC]\08 - For Friends And Relatives.wav
Pre-gap length 0:00:05.37
Peak level 96.6 %
Extraction speed 3.3 X
Track quality 100.0 %
Test CRC 77F001EF
Copy CRC 77F001EF
Accurately ripped (confidence 1) [534D0129] (AR v1)
Copy OK
All tracks accurately ripped
No errors occurred
End of status report
==== Log checksum 6FF11861F786EF263A6D3698ECDC1C0E4DD4623EB116EED34252EAE134A583AE ====
 
Содержание индексной карты (.CUE)
REM GENRE Jazz
REM DATE 2013
REM DISCID 5F0BD408
REM COMMENT "ExactAudioCopy v1.0b2"
PERFORMER "Henrik Otto Donner & TUMO"
TITLE "And It Happened..."
FILE "01 - Junnuda.wav" WAVE
TRACK 01 AUDIO
TITLE "Junnuda"
PERFORMER "Henrik Otto Donner & TUMO"
ISRC FITU91300054
INDEX 01 00:00:00
TRACK 02 AUDIO
TITLE "Close Your Eyes"
PERFORMER "Henrik Otto Donner & TUMO"
ISRC FITU91300055
INDEX 00 04:55:62
FILE "02 - Close Your Eyes.wav" WAVE
INDEX 01 00:00:00
TRACK 03 AUDIO
TITLE "Entreaty"
PERFORMER "Henrik Otto Donner & TUMO"
ISRC FITU91300056
INDEX 00 03:26:16
FILE "03 - Entreaty.wav" WAVE
INDEX 01 00:00:00
TRACK 04 AUDIO
TITLE "The First Summer"
PERFORMER "Henrik Otto Donner & TUMO"
ISRC FITU91300057
INDEX 00 02:42:62
FILE "04 - The First Summer.wav" WAVE
INDEX 01 00:00:00
TRACK 05 AUDIO
TITLE "Have Me, Hold Me"
PERFORMER "Henrik Otto Donner & TUMO"
ISRC FITU91300058
INDEX 00 02:54:59
FILE "05 - Have Me, Hold Me.wav" WAVE
INDEX 01 00:00:00
TRACK 06 AUDIO
TITLE "These Are the Days"
PERFORMER "Henrik Otto Donner & TUMO"
ISRC FITU91300059
INDEX 00 11:11:43
FILE "06 - These Are the Days.wav" WAVE
INDEX 01 00:00:00
TRACK 07 AUDIO
TITLE "And It Happened…"
PERFORMER "Henrik Otto Donner & TUMO"
ISRC FITU91300060
INDEX 00 04:04:63
FILE "07 - And It Happened….wav" WAVE
INDEX 01 00:00:00
TRACK 08 AUDIO
TITLE "For Friends and Relatives"
PERFORMER "Henrik Otto Donner & TUMO"
ISRC FITU91300061
INDEX 00 15:49:66
FILE "08 - For Friends and Relatives.wav" WAVE
INDEX 01 00:00:00
По всем вопросам пишите личное сообщение пользователю M0p94ok.
19:27
216
Нет комментариев. Ваш будет первым!