Вы используете незарегистрированную версию компонента "Вкладки"!

Поиск

(Contemporary Jazz, Free Improvisation) Ornette Coleman Quartet (Don Cherry, Charlie Haden, Billy Higgins) - Reunion 1990 - 2010, FLAC (image+.cue), lossless

(Contemporary Jazz, Free Improvisation) Ornette Coleman Quartet (Don Cherry, Charlie Haden, Billy Higgins) - Reunion 1990 - 2010, FLAC (image+.cue), lossless
Треклист:
Ornette Coleman Quartet / Reunion 1990
Жанр: Contemporary Jazz, Free Improvisation
Страна-производитель диска: Spain
Год издания диска: 2010
Издатель (лейбл): Domino Records
Номер по каталогу: 891203
Аудиокодек: FLAC (*.flac)
Тип рипа: image+.cue
Битрейт аудио: lossless
Продолжительность: 54:12+49:13
Источник (релизер): cd
Наличие сканов в содержимом раздачи: нет
Треклист:
cd1
1-1 Telescope 4:49
1-2 Him And Her 8:28
1-3 Buckminster Fuller 7:37
1-4 Magic 8:33
1-5 Dancing Flower 6:34
1-6 If You Could See My Eyes 9:48
1-7 Spelling The Alphabet 8:10
cd2
2-1 Word For Bird 8:26
2-2 Latin Genetics 12:34
2-3 Singing In The Shower 10:05
2-4 Lonely Woman 12:21
2-5 The Sphinx 5:46
 
Лог создания рипа
Exact Audio Copy V1.0 beta 2 from 29. April 2011
EAC extraction logfile from 1. November 2011, 18:21
Ornette Coleman Quartet / Reunion 1990
Used drive : Optiarc DVD RW AD-7170A Adapter: 0 ID: 0
Read mode : Secure
Utilize accurate stream : Yes
Defeat audio cache : Yes
Make use of C2 pointers : No
Read offset correction : 48
Overread into Lead-In and Lead-Out : No
Fill up missing offset samples with silence : Yes
Delete leading and trailing silent blocks : No
Null samples used in CRC calculations : Yes
Used interface : Native Win32 interface for Win NT & 2000
Used output format : User Defined Encoder
Selected bitrate : 320 kBit/s
Quality : High
Add ID3 tag : No
Command line compressor : C:\Program Files\Exact Audio Copy\Flac\flac.exe
Additional command line options : -V -8 -T "Date=%year%" -T "Genre=%genre%" %source%
TOC of the extracted CD
Track | Start | Length | Start sector | End sector
---------------------------------------------------------
1 | 0:00.00 | 4:59.38 | 0 | 22462
2 | 4:59.38 | 8:28.11 | 22463 | 60573
3 | 13:27.49 | 7:37.10 | 60574 | 94858
4 | 21:04.59 | 8:33.12 | 94859 | 133345
5 | 29:37.71 | 6:34.49 | 133346 | 162944
6 | 36:12.45 | 9:48.36 | 162945 | 207080
7 | 46:01.06 | 8:10.71 | 207081 | 243901
Range status and errors
Selected range
Filename C:\EAC\Downloads\Ornette Coleman Quartet - Reunion 1990.wav
Peak level 97.2 %
Extraction speed 2.1 X
Range quality 100.0 %
Test CRC 00CD7E40
Copy CRC 00CD7E40
Copy OK
No errors occurred
AccurateRip summary
Track 1 accurately ripped (confidence 1) [034D5A6D] (AR v1)
Track 2 accurately ripped (confidence 1) [6A9A08EE] (AR v1)
Track 3 accurately ripped (confidence 1) [17EA6D47] (AR v1)
Track 4 accurately ripped (confidence 1) [C42A156F] (AR v1)
Track 5 accurately ripped (confidence 1) [D962CBA4] (AR v1)
Track 6 accurately ripped (confidence 1) [2B1E2C9B] (AR v1)
Track 7 accurately ripped (confidence 1) [F2794C68] (AR v1)
All tracks accurately ripped
End of status report
==== Log checksum AF1B3019361915B8C7CE8A8824E308722604A8ED933DD02578C48BBAE7AC4FB9 ====
_________________________________________________________________________________________________________________
Exact Audio Copy V1.0 beta 2 from 29. April 2011
EAC extraction logfile from 1. November 2011, 19:17
Ornette Coleman Quartet / Reunion 1990
Used drive : Optiarc DVD RW AD-7170A Adapter: 0 ID: 0
Read mode : Secure
Utilize accurate stream : Yes
Defeat audio cache : Yes
Make use of C2 pointers : No
Read offset correction : 48
Overread into Lead-In and Lead-Out : No
Fill up missing offset samples with silence : Yes
Delete leading and trailing silent blocks : No
Null samples used in CRC calculations : Yes
Used interface : Native Win32 interface for Win NT & 2000
Used output format : User Defined Encoder
Selected bitrate : 320 kBit/s
Quality : High
Add ID3 tag : No
Command line compressor : C:\Program Files\Exact Audio Copy\Flac\flac.exe
Additional command line options : -V -8 -T "Date=%year%" -T "Genre=%genre%" %source%
TOC of the extracted CD
Track | Start | Length | Start sector | End sector
---------------------------------------------------------
1 | 0:00.00 | 8:26.55 | 0 | 38004
2 | 8:26.55 | 12:33.74 | 38005 | 94553
3 | 21:00.54 | 10:05.06 | 94554 | 139934
4 | 31:05.60 | 12:21.40 | 139935 | 195549
5 | 43:27.25 | 5:46.42 | 195550 | 221541
Range status and errors
Selected range
Filename C:\EAC\Downloads\Ornette Coleman Quartet - Reunion 1990.wav
Peak level 100.0 %
Extraction speed 2.0 X
Range quality 100.0 %
Test CRC F2234585
Copy CRC F2234585
Copy OK
No errors occurred
AccurateRip summary
Track 1 accurately ripped (confidence 1) [FB90CFF2] (AR v1)
Track 2 accurately ripped (confidence 1) [F5F0F94E] (AR v1)
Track 3 accurately ripped (confidence 1) [5EB4BC43] (AR v1)
Track 4 accurately ripped (confidence 1) [D7D95FBA] (AR v1)
Track 5 accurately ripped (confidence 1) [4D3A864F] (AR v1)
All tracks accurately ripped
End of status report
==== Log checksum A571CCAEF0D31B80E59A99E8A8DC16F389CF2760B38FF5A5F7CF85F03557F6A7 ====
 
Содержание индексной карты (.CUE)
REM GENRE Jazz
REM DATE 1990
REM DISCID 5E0CB407
REM COMMENT "ExactAudioCopy v1.0b2"
PERFORMER "Ornette Coleman Quartet"
TITLE "Reunion 1990"
FILE "Ornette Coleman Quartet - Reunion 1990.flac" WAVE
TRACK 01 AUDIO
TITLE "Telescope"
PERFORMER "Ornette Coleman Quartet"
ISRC 000000000000
INDEX 01 00:00:00
TRACK 02 AUDIO
TITLE "Him and Her"
PERFORMER "Ornette Coleman Quartet"
ISRC 000000000000
INDEX 01 04:59:38
TRACK 03 AUDIO
TITLE "Buckminster Fuller"
PERFORMER "Ornette Coleman Quartet"
ISRC 000000000000
INDEX 01 13:27:49
TRACK 04 AUDIO
TITLE "Magic"
PERFORMER "Ornette Coleman Quartet"
ISRC 000000000000
INDEX 01 21:04:59
TRACK 05 AUDIO
TITLE "Dancing Flower"
PERFORMER "Ornette Coleman Quartet"
ISRC 000000000000
INDEX 01 29:37:71
TRACK 06 AUDIO
TITLE "If You Could See My Eyes"
PERFORMER "Ornette Coleman Quartet"
ISRC 000000000000
INDEX 01 36:12:45
TRACK 07 AUDIO
TITLE "Spelling the Alphabet"
PERFORMER "Ornette Coleman Quartet"
ISRC 000000000000
INDEX 01 46:01:06
_________________________________________________________________________________________________________________
REM GENRE Jazz
REM DATE 2010
REM DISCID 410B8905
REM COMMENT "ExactAudioCopy v1.0b2"
PERFORMER "Ornette Coleman Quartet"
TITLE "Reunion 1990"
FILE "Ornette Coleman Quartet - Reunion 1990.flac" WAVE
TRACK 01 AUDIO
TITLE "Word For Bird"
PERFORMER "Ornette Coleman Quartet"
ISRC 000000000000
INDEX 01 00:00:00
TRACK 02 AUDIO
TITLE "Latin Genetics"
PERFORMER "Ornette Coleman Quartet"
ISRC 000000000000
INDEX 01 08:26:55
TRACK 03 AUDIO
TITLE "Singing In The Shower"
PERFORMER "Ornette Coleman Quartet"
ISRC 000000000000
INDEX 01 21:00:54
TRACK 04 AUDIO
TITLE "Lonely Woman"
PERFORMER "Ornette Coleman Quartet"
ISRC 000000000000
INDEX 01 31:05:60
TRACK 05 AUDIO
TITLE "The Sphinx"
PERFORMER "Ornette Coleman Quartet"
ISRC 000000000000
INDEX 01 43:27:25
Доп. информация: Recorded live at Teatro Municipale Valli, Reggio Emilia, Italy, April 24, 1990
 
Об альбоме (сборнике)
This release contains a complete never befor released live performance by the original Ornette Coleman quartet, in a reunion concert that took place in Reggio Emilia (between Modena and Parma), Italy, thirty years after the recording of their first album, the wonderful "The Shape of Jazz To Come". Among the many highlights here are revised versions of "Lonely Woman", from that album, and "The Sphinx", from Ornette's first album, "Something Else"!!
 
Состав
Alto Saxophone – Ornette Coleman
Bass – Charlie Haden
Cornet – Don Cherry
Drums – Billy Higgins
Any questions -> support@pro-jazz.com. По всем вопросам пишите -> support@pro-jazz.com
18:00
315
Нет комментариев. Ваш будет первым!