Поиск

(Contemporary Jazz, Free Improvisation) Odean Pope Trio (Gerald Veasley, David Gibson) - Willisau Jazz Festival 1991.08.31 bootleg - 1991, FLAC (tracks), lossless

(Contemporary Jazz, Free Improvisation) Odean Pope Trio (Gerald Veasley, David Gibson) - Willisau Jazz Festival 1991.08.31 bootleg - 1991, FLAC (tracks), lossless
Треклист:
Odean Pope Trio / Willisau Jazz Festival 1991.08.31
Жанр: Contemporary Jazz, Free Improvisation
Год издания: 1991
Аудиокодек: FLAC (*.flac)
Тип рипа: tracks
Битрейт аудио: lossless
Продолжительность: 01:17:23
Источник (релизер): dimeadozen.org (nadir_53)
Наличие сканов в содержимом раздачи: нет
Треклист:
1. Neapolitan Minor
2. Bass Solo
3. Bass Solo
4. Spanish Love Theme
5. The Garden Of Happiness
6. Saxophone Shop, Part 2
7. Drum Solo
8. Band Introduction
9. Mwalimu
10. 9/4 Going 4/4 Ways
 
Лог проверки качества
-----------------------
DON'T MODIFY THIS FILE
-----------------------
PERFORMER: auCDtect Task Manager, ver. 1.6.0 RC1 build 1.6.0.1
Copyright (c) 2008-2010 y-soft. All rights reserved
http://y-soft.org
ANALYZER: auCDtect: CD records authenticity detector, version 0.8.2
Copyright (c) 2004 Oleg Berngardt. All rights reserved.
Copyright (c) 2004 Alexander Djourik. All rights reserved.
FILE: 10. 9-4 Going 4-4 Ways.flac
Size: 96004958 Hash: D2DFAC8BD510A2FCC975C95B5E4DFCEF Accuracy: -m0
Conclusion: CDDA 100%
Signature: B97D21E3A08706A83B60F741119A2641D7356DDF
FILE: 09. Mwalimu.flac
Size: 64243870 Hash: 33E4CB1B05361F6CABFA081A5B3BB70B Accuracy: -m0
Conclusion: CDDA 100%
Signature: 098DF343C54A9D8C7C12A446E6A22306F974B73A
FILE: 08. Band Introduction.flac
Size: 5336752 Hash: 33411B6DF727931BC7C486E8A3913201 Accuracy: -m0
Conclusion: CDDA 100%
Signature: B10FD246C72893647BE2A4CC140455DA381E8F6C
FILE: 07. Drum Solo.flac
Size: 60320084 Hash: F4192B60B3621358E64E18228BBA8C95 Accuracy: -m0
Conclusion: CDDA 100%
Signature: 6E30D9DE952AC83348D823CAFB08DA5D35BF207B
FILE: 06. Saxophone Shop, Part 2.flac
Size: 120911784 Hash: 9D31F2ED8765220C9789B94433592230 Accuracy: -m0
Conclusion: CDDA 100%
Signature: 79D339EAF77813F6715A33D34C88F805269B8E50
FILE: 05. The Garden Of Happiness.flac
Size: 42789740 Hash: FE27AE54190951B3AB19261557DDD85D Accuracy: -m0
Conclusion: CDDA 100%
Signature: 1CECAB513C18D0CB121E82C6C277C445F3A12263
FILE: 04. Spanish Love Theme.flac
Size: 53954847 Hash: B2F3ECEDA8D428C6466113E6FEABA25A Accuracy: -m0
Conclusion: CDDA 100%
Signature: 9C487EB8518809E783C6D21D59D9672D03CA840F
FILE: 03. Bass Solo.flac
Size: 14501567 Hash: F599E9E67999BAE3972AE51A8F3BF2A0 Accuracy: -m0
Conclusion: CDDA 100%
Signature: D15DC84507C5D25AAB4CBBA37C5A6EF32AFDC89B
FILE: 02. Bass Solo.flac
Size: 25267797 Hash: 2F6225ED28D7E9296EF553C9520A8140 Accuracy: -m0
Conclusion: CDDA 100%
Signature: 27AF5B100D44472CEA344FA383514EFAB9FE73C0
FILE: 01. Neapolitan Minor.flac
Size: 70435396 Hash: 4BE5948D20BF3FB85E5DABEEE8293CA2 Accuracy: -m0
Conclusion: CDDA 100%
Signature: ADF1FE91B339F72FBA823A175A7D1AF3FB36640B
 
DR
foobar2000 1.3.16 / Замер динамического диапазона (DR) 1.1.1
Дата отчёта: 2018-03-23 06:25:43
--------------------------------------------------------------------------------
Анализ: Odean Pope Trio / 1991.08.31 Willisau Jazz Festival
--------------------------------------------------------------------------------
DR Пики RMS Продолжительность трека
--------------------------------------------------------------------------------
DR11 0.00 дБ -12.52 дБ 9:24 01-Neapolitan Minor
DR10 -1.49 дБ -15.73 дБ 4:15 02-Bass Solo
DR10 -1.21 дБ -14.13 дБ 2:19 03-Bass Solo
DR11 0.00 дБ -13.31 дБ 7:38 04-Spanish Love Theme
DR12 0.00 дБ -16.26 дБ 6:38 05-The Garden Of Happiness
DR11 0.00 дБ -12.77 дБ 16:28 06-Saxophone Shop, Part 2
DR10 0.00 дБ -12.80 дБ 8:11 07-Drum Solo
DR9 0.00 дБ -12.05 дБ 0:44 08-Band Introduction
DR11 0.00 дБ -14.29 дБ 9:13 09-Mwalimu
DR10 0.00 дБ -11.61 дБ 12:34 10-9/4 Going 4/4 Ways
--------------------------------------------------------------------------------
Количество треков: 10
Реальные значения DR: DR11
Частота: 44100 Гц
Каналов: 2
Разрядность: 16
Битрейт: 1019 кбит/с
Кодек: FLAC
================================================================================
 
Состав
Odean Pope - Tenor Saxophone, Soprano Saxophone
Gerald Veasley - Bass Guitar
David Gibson - Drums
Download available for power users only.
03:23
478
Нет комментариев. Ваш будет первым!