Вы используете незарегистрированную версию компонента "Вкладки"!

Поиск

(Contemporary Jazz) FAB Trio - A Night In Paris - 2008, FLAC (tracks+.cue), lossless

(Contemporary Jazz) FAB Trio - A Night In Paris - 2008, FLAC (tracks+.cue), lossless
Треклист:
FAB Trio - A Night In Paris
Жанр: Contemporary Jazz
Страна-производитель диска: France
Год издания: 2008
Издатель (лейбл): Marge Records
Номер по каталогу: MARGE 41
Аудиокодек: FLAC (*.flac)
Тип рипа: tracks+.cue
Битрейт аудио: lossless
Продолжительность: 68 min.
Источник (релизер): собственный рип с оригинального диска.
Наличие сканов в содержимом раздачи: да
Треклист:
01. A Night In Paris, Part 1 8:14
02. A Night In Paris, Part 2 8:26
03. Da Bang 17:59
04. Just A Simple Song 9:38
05. China 12:21
06. Spirits Entering 10:45
 
Лог создания рипа
Exact Audio Copy V1.0 beta 3 from 29. August 2011
EAC extraction logfile from 29. April 2013, 19:01
FAB Trio / A Night In Paris
Used drive : TSSTcorpCDDVDW SH-S222A Adapter: 1 ID: 0
Read mode : Secure
Utilize accurate stream : Yes
Defeat audio cache : Yes
Make use of C2 pointers : No
Read offset correction : 6
Overread into Lead-In and Lead-Out : No
Fill up missing offset samples with silence : Yes
Delete leading and trailing silent blocks : No
Null samples used in CRC calculations : Yes
Used interface : Native Win32 interface for Win NT & 2000
Gap handling : Appended to previous track
Used output format : User Defined Encoder
Selected bitrate : 896 kBit/s
Quality : High
Add ID3 tag : No
Command line compressor : C:\Tool\CD\EAC10\FLAC\FLAC.EXE
Additional command line options : -8 -V -T "ARTIST=%artist%" -T "TITLE=%title%" -T "ALBUM=%albumtitle%" -T "DATE=%year%" -T "TRACKNUMBER=%tracknr%" -T "GENRE=%genre%" -T "PERFORMER=%albuminterpret%" -T "COMPOSER=%composer%" %haslyrics%--tag-from-file=LYRICS="%lyricsfile%"%haslyrics% -T "ALBUMARTIST=%albumartist%" -T "ALBUM ARTIST=%albumartist%" -T "DISCNUMBER=%cdnumber%" -T "TOTALDISCS=%totalcds%" -T "TOTALTRACKS=%numtracks%" -T "COMMENT=EAC V1.0 beta 3, Secure Mode, Test & Copy, AccurateRip, FLAC -8" %source% -o %dest%
TOC of the extracted CD
Track | Start | Length | Start sector | End sector
---------------------------------------------------------
1 | 0:00.00 | 8:14.29 | 0 | 37078
2 | 8:14.29 | 8:26.59 | 37079 | 75087
3 | 16:41.13 | 17:59.26 | 75088 | 156038
4 | 34:40.39 | 9:38.05 | 156039 | 199393
5 | 44:18.44 | 12:21.51 | 199394 | 255019
6 | 56:40.20 | 10:45.16 | 255020 | 303410
Track 1
Filename C:\! UPLOAD\FAB Trio - A Night In Paris (2008) [FLAC]\01 - A Night In Paris, part 1.wav
Pre-gap length 0:00:02.00
Peak level 98.7 %
Extraction speed 5.1 X
Track quality 100.0 %
Test CRC A7925AAE
Copy CRC A7925AAE
Accurately ripped (confidence 1) [F86A212D] (AR v1)
Copy OK
Track 2
Filename C:\! UPLOAD\FAB Trio - A Night In Paris (2008) [FLAC]\02 - A Night In Paris, part 2.wav
Peak level 98.7 %
Extraction speed 6.0 X
Track quality 100.0 %
Test CRC 4A4CB697
Copy CRC 4A4CB697
Accurately ripped (confidence 1) [9B682782] (AR v1)
Copy OK
Track 3
Filename C:\! UPLOAD\FAB Trio - A Night In Paris (2008) [FLAC]\03 - Da Bang.wav
Peak level 98.7 %
Extraction speed 7.0 X
Track quality 99.9 %
Test CRC D2C9BDF5
Copy CRC D2C9BDF5
Accurately ripped (confidence 1) [DC100ADE] (AR v1)
Copy OK
Track 4
Filename C:\! UPLOAD\FAB Trio - A Night In Paris (2008) [FLAC]\04 - Just a Simple Song.wav
Peak level 98.7 %
Extraction speed 8.1 X
Track quality 100.0 %
Test CRC A1A80577
Copy CRC A1A80577
Accurately ripped (confidence 1) [97E61554] (AR v1)
Copy OK
Track 5
Filename C:\! UPLOAD\FAB Trio - A Night In Paris (2008) [FLAC]\05 - China.wav
Peak level 98.7 %
Extraction speed 8.2 X
Track quality 99.9 %
Test CRC C4EA94C2
Copy CRC C4EA94C2
Accurately ripped (confidence 1) [C1A26249] (AR v1)
Copy OK
Track 6
Filename C:\! UPLOAD\FAB Trio - A Night In Paris (2008) [FLAC]\06 - Spirits Entering.wav
Peak level 98.7 %
Extraction speed 9.5 X
Track quality 100.0 %
Test CRC 1E136A52
Copy CRC 1E136A52
Accurately ripped (confidence 1) [FAC2CA96] (AR v1)
Copy OK
All tracks accurately ripped
No errors occurred
End of status report
---- CUETools DB Plugin V2.1.3
[CTDB TOCID: v95rNNNFolOCQ4_TaVtXGi42IiE-] disk not present in database, Submit result: v95rNNNFolOCQ4_TaVtXGi42IiE- has been uploaded
==== Log checksum 32E2615EE5ECA7F118C7E5FCF21D0B88BB4AD3B4CC10CF523A8836BF5FEB614E ====
 
Содержание индексной карты (.CUE)
REM GENRE Jazz
REM DATE 2008
REM DISCID 3C0FCD06
REM COMMENT "ExactAudioCopy v1.0b3"
PERFORMER "FAB Trio"
TITLE "A Night In Paris"
FILE "01 - A Night In Paris, part 1.wav" WAVE
TRACK 01 AUDIO
TITLE "A Night In Paris, part 1"
PERFORMER "FAB Trio"
INDEX 01 00:00:00
FILE "02 - A Night In Paris, part 2.wav" WAVE
TRACK 02 AUDIO
TITLE "A Night In Paris, part 2"
PERFORMER "FAB Trio"
INDEX 01 00:00:00
FILE "03 - Da Bang.wav" WAVE
TRACK 03 AUDIO
TITLE "Da Bang"
PERFORMER "FAB Trio"
INDEX 01 00:00:00
FILE "04 - Just a Simple Song.wav" WAVE
TRACK 04 AUDIO
TITLE "Just a Simple Song"
PERFORMER "FAB Trio"
INDEX 01 00:00:00
FILE "05 - China.wav" WAVE
TRACK 05 AUDIO
TITLE "China"
PERFORMER "FAB Trio"
INDEX 01 00:00:00
FILE "06 - Spirits Entering.wav" WAVE
TRACK 06 AUDIO
TITLE "Spirits Entering"
PERFORMER "FAB Trio"
INDEX 01 00:00:00
Доп. информация:
Recorded on April 19th 2008 at The Sunset, Paris, France.
 
Об альбоме (Martin Longley / aaj)
This is a high-energy proposition, with all three band members representing jazz at its most vigorously extroverted. Outside of the studio, these players keenly grasp the opportunity for amplified fortitude, each relishing combat and confrontation, each in the business of escalation.
Although these men are free jazz champions, they also employ the classic post-bop language, even though representing its more barnstorming end.
 
Об альбоме (from Dusty Groove)
The Fab Trio's really been making some great musical waves in recent years – flying the flag of older improvisation high with their creative interplay, and boundless sense of imagination! That's no surprise, though, given the strength of the three players in the group all working together here with sounds that stem from their musical legacy back to the 70s – particularly some of the most open, expressive sounds that Bang gave us back in the day!
In fact, there's almost a loft jazz feel to the whole record – a relaxed, respectful sense of creation that gives the album a very organic feel.
 
Состав
Joe Fonda - bass
Barry Altschul - drums
Billy Bang - violin
Any questions -> support@pro-jazz.com. По всем вопросам пишите -> support@pro-jazz.com
13:31
161
Нет комментариев. Ваш будет первым!