Вы используете незарегистрированную версию компонента "Вкладки"!

Поиск

(Contemporary Jazz, Experimental, Rune Grammofon) Opsvik & Jennings - Commuter Anthems - 2007, FLAC (tracks+.cue) lossless

Треклист:
Opsvik & Jennings / Commuter Anthems
Жанр: Contemporary Jazz, Experimental, Rune Grammofon
Страна-производитель диска: Norway
Год издания диска: 2007
Издатель (лейбл): Rune Grammofon
Номер по каталогу: RCD 2062
Аудио кодек: FLAC (*.flac)
Тип рипа: tracks+.cue
Битрейт аудио: lossless
Продолжительность: 46:39
Источник (релизер): what.cd (spleener)
Наличие сканов в содержимом раздачи: нет
Треклист:
01 The Last Country Village
02 Silverlake
03 Commuter Anthem
04 Wrong Place Right Time
05 Lorinda Sea
06 Port Authority
07 Ways
08 I'll Scrounge Along
09 The Pendler
10 Apology/Goodbye
 
Лог создания рипа
X Lossless Decoder version 20091230 (115.2)
XLD extraction logfile from 2010-01-15 14:36:12 +0000
Opsvik & Jennings / Commuter Anthems
Used drive : OPTIARC DVD RW AD-7170A (revision 1.NC)
Use cdparanoia mode : YES (CDParanoia III 10.2 engine)
Disable audio cache : OK for the drive with cache less than 2750KB
Make use of C2 pointers : NO
Read offset correction : 48
Max retry count : 100
TOC of the extracted CD
Track | Start | Length | Start sector | End sector
---------------------------------------------------------
1 | 00:00:00 | 04:08:22 | 0 | 18621
2 | 04:08:22 | 03:46:23 | 18622 | 35594
3 | 07:54:45 | 03:21:15 | 35595 | 50684
4 | 11:15:60 | 04:32:00 | 50685 | 71084
5 | 15:47:60 | 06:48:22 | 71085 | 101706
6 | 22:36:07 | 04:29:45 | 101707 | 121926
7 | 27:05:52 | 04:32:30 | 121927 | 142356
8 | 31:38:07 | 08:46:15 | 142357 | 181821
9 | 40:24:22 | 05:07:53 | 181822 | 204899
10 | 45:32:00 | 01:07:30 | 204900 | 209954
All Tracks
Album gain : -4.34 dB
Peak : 0.999969
Track 01
Filename : /XLD/01 Opsvik & Jennings - The Country Village.flac
Pre-gap length : 00:02:00
Track gain : -3.57 dB
Peak : 0.999969
CRC32 hash (test run) : 3CC40EA3
CRC32 hash : 3CC40EA3
CRC32 hash (skip zero) : A326D000
AccurateRip signature : E594901C
->Accurately ripped! (confidence 3)
Statistics
Read error : 0
Skipped (treated as error) : 0
Edge jitter error (maybe fixed) : 0
Atom jitter error (maybe fixed) : 0
Drift error (maybe fixed) : 0
Dropped bytes error (maybe fixed) : 0
Duplicated bytes error (maybe fixed) : 0
Inconsistency in error sectors : 0
Track 02
Filename : /XLD/02 Opsvik & Jennings - Silverlake.flac
Pre-gap length : 00:01:67
Track gain : -5.30 dB
Peak : 0.999969
CRC32 hash (test run) : E3E0272B
CRC32 hash : E3E0272B
CRC32 hash (skip zero) : 53C56254
AccurateRip signature : 3F2221CB
->Accurately ripped! (confidence 3)
Statistics
Read error : 0
Skipped (treated as error) : 0
Edge jitter error (maybe fixed) : 0
Atom jitter error (maybe fixed) : 0
Drift error (maybe fixed) : 0
Dropped bytes error (maybe fixed) : 0
Duplicated bytes error (maybe fixed) : 0
Inconsistency in error sectors : 0
Track 03
Filename : /XLD/03 Opsvik & Jennings - Commuter Anthem.flac
Pre-gap length : 00:00:45
Track gain : -4.16 dB
Peak : 0.999969
CRC32 hash (test run) : 505EF9E4
CRC32 hash : 505EF9E4
CRC32 hash (skip zero) : D87FB34B
AccurateRip signature : 347807BA
->Accurately ripped! (confidence 3)
Statistics
Read error : 0
Skipped (treated as error) : 0
Edge jitter error (maybe fixed) : 0
Atom jitter error (maybe fixed) : 0
Drift error (maybe fixed) : 0
Dropped bytes error (maybe fixed) : 0
Duplicated bytes error (maybe fixed) : 0
Inconsistency in error sectors : 0
Track 04
Filename : /XLD/04 Opsvik & Jennings - Wrong Place Right Time.flac
Pre-gap length : 00:01:65
Track gain : -4.75 dB
Peak : 0.999969
CRC32 hash (test run) : 5E8AE751
CRC32 hash : 5E8AE751
CRC32 hash (skip zero) : E3FE5BEA
AccurateRip signature : ECB80402
->Accurately ripped! (confidence 3)
Statistics
Read error : 0
Skipped (treated as error) : 0
Edge jitter error (maybe fixed) : 0
Atom jitter error (maybe fixed) : 0
Drift error (maybe fixed) : 0
Dropped bytes error (maybe fixed) : 0
Duplicated bytes error (maybe fixed) : 0
Inconsistency in error sectors : 0
Track 05
Filename : /XLD/05 Opsvik & Jennings - Lorinda Sea.flac
Pre-gap length : 00:01:38
Track gain : -2.88 dB
Peak : 0.999969
CRC32 hash (test run) : D3B0B956
CRC32 hash : D3B0B956
CRC32 hash (skip zero) : 49203637
AccurateRip signature : 63830F57
->Accurately ripped! (confidence 3)
Statistics
Read error : 0
Skipped (treated as error) : 0
Edge jitter error (maybe fixed) : 0
Atom jitter error (maybe fixed) : 0
Drift error (maybe fixed) : 0
Dropped bytes error (maybe fixed) : 0
Duplicated bytes error (maybe fixed) : 0
Inconsistency in error sectors : 0
Track 06
Filename : /XLD/06 Opsvik & Jennings - Port Authority.flac
Pre-gap length : 00:02:10
Track gain : -2.54 dB
Peak : 0.999969
CRC32 hash (test run) : D5DF4D29
CRC32 hash : D5DF4D29
CRC32 hash (skip zero) : 99BD01C3
AccurateRip signature : E42E342D
->Accurately ripped! (confidence 3)
Statistics
Read error : 0
Skipped (treated as error) : 0
Edge jitter error (maybe fixed) : 0
Atom jitter error (maybe fixed) : 0
Drift error (maybe fixed) : 0
Dropped bytes error (maybe fixed) : 0
Duplicated bytes error (maybe fixed) : 0
Inconsistency in error sectors : 0
Track 07
Filename : /XLD/07 Opsvik & Jennings - Ways.flac
Pre-gap length : 00:02:07
Track gain : -6.55 dB
Peak : 0.999969
CRC32 hash (test run) : 89CD36C8
CRC32 hash : 89CD36C8
CRC32 hash (skip zero) : A1F7D7A1
AccurateRip signature : 6B0B2037
->Accurately ripped! (confidence 3)
Statistics
Read error : 0
Skipped (treated as error) : 0
Edge jitter error (maybe fixed) : 0
Atom jitter error (maybe fixed) : 0
Drift error (maybe fixed) : 0
Dropped bytes error (maybe fixed) : 0
Duplicated bytes error (maybe fixed) : 0
Inconsistency in error sectors : 0
Track 08
Filename : /XLD/08 Opsvik & Jennings - I'll Scrounge Along.flac
Pre-gap length : 00:02:25
Track gain : -2.22 dB
Peak : 0.999939
CRC32 hash (test run) : AE2109FA
CRC32 hash : 356F15BD
->Rip may not be accurate.
CRC32 hash (skip zero) : 4454EEE0
AccurateRip signature : F274973B
->Accurately ripped! (confidence 3)
Statistics
Read error : 0
Skipped (treated as error) : 0
Edge jitter error (maybe fixed) : 1
Atom jitter error (maybe fixed) : 0
Drift error (maybe fixed) : 0
Dropped bytes error (maybe fixed) : 0
Duplicated bytes error (maybe fixed) : 1
Inconsistency in error sectors : 0
Track 09
Filename : /XLD/09 Opsvik & Jennings - The Pendler.flac
Pre-gap length : 00:01:55
Track gain : -4.36 dB
Peak : 0.999939
CRC32 hash (test run) : 3CD0A1F3
CRC32 hash : 3CD0A1F3
CRC32 hash (skip zero) : C08890DA
AccurateRip signature : 88E4FAE7
->Accurately ripped! (confidence 3)
Statistics
Read error : 0
Skipped (treated as error) : 0
Edge jitter error (maybe fixed) : 2
Atom jitter error (maybe fixed) : 1
Drift error (maybe fixed) : 0
Dropped bytes error (maybe fixed) : 1
Duplicated bytes error (maybe fixed) : 1
Inconsistency in error sectors : 0
Track 10
Filename : /XLD/10 Opsvik & Jennings - Apology пјЏ Goodbye.flac
Pre-gap length : 00:01:48
Track gain : -3.98 dB
Peak : 0.999969
CRC32 hash (test run) : 527757CE
CRC32 hash : 527757CE
CRC32 hash (skip zero) : 43E43EED
AccurateRip signature : E89B7D42
->Accurately ripped! (confidence 3)
Statistics
Read error : 0
Skipped (treated as error) : 0
Edge jitter error (maybe fixed) : 0
Atom jitter error (maybe fixed) : 0
Drift error (maybe fixed) : 0
Dropped bytes error (maybe fixed) : 0
Duplicated bytes error (maybe fixed) : 0
Inconsistency in error sectors : 0
Some inconsistencies found
End of status report
 
Содержание индексной карты (.CUE)
TITLE "Commuter Anthems"
PERFORMER "Opsvik & Jennings"
REM GENRE "Jazz"
REM DATE "2007-04-02"
REM REPLAYGAIN_ALBUM_GAIN -4.34 dB
REM REPLAYGAIN_ALBUM_PEAK 0.999969
FILE "01 Opsvik & Jennings - The Country Village.wav" WAVE
TRACK 01 AUDIO
TITLE "The Country Village"
ISRC NOFGR0762010
REM REPLAYGAIN_TRACK_GAIN -3.57 dB
REM REPLAYGAIN_TRACK_PEAK 0.999969
INDEX 01 00:00:00
TRACK 02 AUDIO
TITLE "Silverlake"
ISRC NOFGR0762020
REM REPLAYGAIN_TRACK_GAIN -5.30 dB
REM REPLAYGAIN_TRACK_PEAK 0.999969
INDEX 00 04:06:30
FILE "02 Opsvik & Jennings - Silverlake.wav" WAVE
INDEX 01 00:00:00
TRACK 03 AUDIO
TITLE "Commuter Anthem"
ISRC NOFGR0762030
REM REPLAYGAIN_TRACK_GAIN -4.16 dB
REM REPLAYGAIN_TRACK_PEAK 0.999969
INDEX 00 03:45:53
FILE "03 Opsvik & Jennings - Commuter Anthem.wav" WAVE
INDEX 01 00:00:00
TRACK 04 AUDIO
TITLE "Wrong Place Right Time"
ISRC NOFGR0762040
REM REPLAYGAIN_TRACK_GAIN -4.75 dB
REM REPLAYGAIN_TRACK_PEAK 0.999969
INDEX 00 03:19:25
FILE "04 Opsvik & Jennings - Wrong Place Right Time.wav" WAVE
INDEX 01 00:00:00
TRACK 05 AUDIO
TITLE "Lorinda Sea"
ISRC NOFGR0762050
REM REPLAYGAIN_TRACK_GAIN -2.88 dB
REM REPLAYGAIN_TRACK_PEAK 0.999969
INDEX 00 04:30:37
FILE "05 Opsvik & Jennings - Lorinda Sea.wav" WAVE
INDEX 01 00:00:00
TRACK 06 AUDIO
TITLE "Port Authority"
ISRC NOFGR0762060
REM REPLAYGAIN_TRACK_GAIN -2.54 dB
REM REPLAYGAIN_TRACK_PEAK 0.999969
INDEX 00 06:46:12
FILE "06 Opsvik & Jennings - Port Authority.wav" WAVE
INDEX 01 00:00:00
TRACK 07 AUDIO
TITLE "Ways"
ISRC NOFGR0762070
REM REPLAYGAIN_TRACK_GAIN -6.55 dB
REM REPLAYGAIN_TRACK_PEAK 0.999969
INDEX 00 04:27:38
FILE "07 Opsvik & Jennings - Ways.wav" WAVE
INDEX 01 00:00:00
TRACK 08 AUDIO
TITLE "I'll Scrounge Along"
ISRC NOFGR0762080
REM REPLAYGAIN_TRACK_GAIN -2.22 dB
REM REPLAYGAIN_TRACK_PEAK 0.999939
INDEX 00 04:30:05
FILE "08 Opsvik & Jennings - I'll Scrounge Along.wav" WAVE
INDEX 01 00:00:00
TRACK 09 AUDIO
TITLE "The Pendler"
ISRC NOFGR0762090
REM REPLAYGAIN_TRACK_GAIN -4.36 dB
REM REPLAYGAIN_TRACK_PEAK 0.999939
INDEX 00 08:44:35
FILE "09 Opsvik & Jennings - The Pendler.wav" WAVE
INDEX 01 00:00:00
TRACK 10 AUDIO
TITLE "Apology / Goodbye"
ISRC NOFGR0762100
REM REPLAYGAIN_TRACK_GAIN -3.98 dB
REM REPLAYGAIN_TRACK_PEAK 0.999969
INDEX 00 05:06:05
FILE "10 Opsvik & Jennings - Apology пјЏ Goodbye.wav" WAVE
INDEX 01 00:00:00
Доп. информация: Recorded, mixed and produced by Opsvik & Jennings, New York City, 2005/2006.
 
Об альбоме (сборнике)
RCD 2062 - Opsvik & Jennings: Commuter Anthems
”Commuter Anthems” is the second album from Eivind Opsvik and Aaron Jennings. Opsvik is from Oslo, Norway, but has lived in New York since 1998 where he's playing bass in several cutting edge groups. Guitarist Aaron Jennings is from Tulsa, Oklahoma, but moved to New York after college. As with many of our releases ”Commuter Anthems” is difficult to categorize. Both players come from a jazz background, but that's only a small part of the picture. Folk and country influences provide the album with a rural, almost relaxed feeling as guitars, double bass, drums, concertina, pump organ, lap steel, banjo, and various recording techniques and software manipulations creates a filmatic musical story being played by a dreamy experimental pop orchestra.
Released 26.03.07
Reviews RCD2062
The writing here is celebratory and, well, anthemic, with a whiff of Sufjan Stevens. The broad range of instrumentation combined with laptop work recalls the excellent Swedish trio Tape. Initial reservations that Opsvik & Jennings display cleverness rather than heart are dispelled with repeated listening. Their vision is odd, combining jazz and pop, melody amd whimsy with a dollop of kitsch, but it is done with such delicacy and tenderness that this is an album one could fall in love with.
The Wire (UK)
Music can act like an audio photograph, recalling fond but oft forgotten memories. Between 1996 and 1998, great albums were being made by Tortoise ("Millions Now Living Will Never Die"), Gastr Del Sol ("Camofleur"), Bundy K Brown ("Directions In Music") and Matmos ("The West"). These are the albums my brother and I used to play sitting outside in the garden on long summer days, the music pouring out of the rear bedroom window. "Commuter Anthems" takes those cherished sounds and distils them into perfectly formed instalments. Traditional elements (lap steel, banjo, guitars) are juxtaposed with non-organic gurgles and software ticks to conjure effervescent blooms that blossom in full vibrant colour. For some this may be too cloying, but when Opsvik kicks it with the big bass drum on "The Pendler" all objectivity disappears. It's back to the summer of '96 and everything is right with the world.
Plan B (UK)
The influence of so-called post-rock bands like Tortoise, Gastr del Sol and Trapist is hard to miss, but the duo ultimately forges its own path. Over shambling yet gentle rhythms the pair sculpts a beautiful patchwork of guitar patterns, organ swells, twangy banjo, nifty samples (including some celeste by Craig Taborn) and occasional horn charts to build irresistible pop melodies. The digitally tweaked arrangements are constantly in flux, adding new wrinkles with each chorus, so even as the music’s tunefulness lodges in the memory, fresh, shifting details emerge continuously. The album is way too good to fuss over how it should be categorized. 4/5.
Downbeat (US)
The music they create is very accessible on the hand, and may pass by without noticing it like some ambient music, when listening superficially. The reward comes from listening with more concentration. As said above they use a great diversity of sounds and instruments, and they paint very colorful pieces with good feeling for style and a great sense for detail and finesse. Also their music is very well constructed in an inventive and original way, far from any cliche. Funny to find this sense for musical adventure within this friendly and comforting music. A great album.
Vital Weekly (NE)
 
Состав
Double Bass, Bass [Electric], Drums, Percussion, Piano, Organ, Theremin, Vocals, Computer - Eivind Opsvik
Flute - Peter Opsvik (tracks: 4)
Guitar [Electric], Acoustic Guitar, Guitar [Lap Steel], Banjo, Concertina, Vocals, Computer, Electronics - Aaron Jennings
Other [Piano Preparation] - Else Olsen Storesund (tracks: 1, 3)
Trombone - Ben Gerstein (tracks: 3, 5, 9)
Trumpet - Rich Johnson (2) (tracks: 3, 9)
По всем вопросам пишите личное сообщение пользователю M0p94ok.
08:52
98
Нет комментариев. Ваш будет первым!