Поиск

(Contemporary Jazz, Ethnic Jazz) Pharoah Sanders - Save Our Children - 1999, FLAC (tracks+.cue) lossless

Треклист:
Pharoah Sanders / Save Our Children
Жанр: Contemporary Jazz, Ethnic Jazz
Страна-производитель диска: Russia
Год издания диска: 1999
Издатель (лейбл): Verve Records
Номер по каталогу: 314 557 297-2
Страна: US
Аудио кодек: FLAC (*.flac)
Тип рипа: tracks+.cue
Битрейт аудио: lossless
Продолжительность: 61:27
Источник (релизер): Свой пиратский диск
Наличие сканов в содержимом раздачи: нет
Треклист:
1 Save Our Children 7:51
Voice - Abiodun Oyewole , Asante (2)
Voice, Talking Drum - Abdou Mboup*
2 Midnight In Berkeley Square 9:17
3 Jewels Of Love 14:00
4 Kazuko 10:15
5 The Ancient Sounds 10:51
6 Far-Off Sand 9:09
 
Лог создания рипа
Exact Audio Copy V0.99 prebeta 5 from 4. May 2009
EAC extraction logfile from 13. December 2010, 21:18
Pharoah Sanders / Save Our Children
Used drive : PIONEER DVD-RW DVR-115D Adapter: 0 ID: 0
Read mode : Secure
Utilize accurate stream : Yes
Defeat audio cache : Yes
Make use of C2 pointers : No
Read offset correction : 48
Overread into Lead-In and Lead-Out : No
Fill up missing offset samples with silence : Yes
Delete leading and trailing silent blocks : No
Null samples used in CRC calculations : Yes
Used interface : Installed external ASPI interface
Gap handling : Appended to previous track
Used output format : User Defined Encoder
Selected bitrate : 768 kBit/s
Quality : High
Add ID3 tag : No
Command line compressor : C:\Program Files\Exact Audio Copy\Flac\flac.exe
Additional command line options : -8 -V %s
TOC of the extracted CD
Track | Start | Length | Start sector | End sector
---------------------------------------------------------
1 | 0:00.00 | 7:52.30 | 0 | 35429
2 | 7:52.30 | 9:17.20 | 35430 | 77224
3 | 17:09.50 | 14:00.40 | 77225 | 140264
4 | 31:10.15 | 10:15.25 | 140265 | 186414
5 | 41:25.40 | 10:51.37 | 186415 | 235276
6 | 52:17.02 | 9:10.25 | 235277 | 276551
Track 1
Filename D:\dvdlabtemp\01. Save Our Children.wav
Pre-gap length 0:00:02.00
Peak level 98.8 %
Track quality 100.0 %
Test CRC 2CE3B9DD
Copy CRC 2CE3B9DD
Accurately ripped (confidence 2) [C693756C]
Copy OK
Track 2
Filename D:\dvdlabtemp\02. Midnight In Berkeley Square.wav
Peak level 98.8 %
Track quality 100.0 %
Test CRC 2026C6C6
Copy CRC 2026C6C6
Cannot be verified as accurate (confidence 14) [BCF39F83], AccurateRip returned [5BE7D2A6]
Copy OK
Track 3
Filename D:\dvdlabtemp\03. Jewels Of Love.wav
Peak level 98.8 %
Track quality 100.0 %
Test CRC 5A7C1A21
Copy CRC 5A7C1A21
Accurately ripped (confidence 2) [552BA770]
Copy OK
Track 4
Filename D:\dvdlabtemp\04. Kazuko.wav
Peak level 98.8 %
Track quality 100.0 %
Test CRC F7EF71D3
Copy CRC F7EF71D3
Accurately ripped (confidence 2) [38D8CB36]
Copy OK
Track 5
Filename D:\dvdlabtemp\05. The Ancient Sounds.wav
Peak level 98.8 %
Track quality 99.9 %
Test CRC 94E4E5D9
Copy CRC 94E4E5D9
Accurately ripped (confidence 2) [EED39A23]
Copy OK
Track 6
Filename D:\dvdlabtemp\06. Far-Off Sand.wav
Peak level 98.8 %
Track quality 100.0 %
Test CRC 8C8DA59B
Copy CRC 8C8DA59B
Accurately ripped (confidence 2) [A62A646A]
Copy OK
5 track(s) accurately ripped
1 track(s) could not be verified as accurate
Some tracks could not be verified as accurate
No errors occurred
End of status report
 
Содержание индексной карты (.CUE)
REM DATE 1999
REM DISCID 4D0E6706
REM COMMENT "ExactAudioCopy v0.99pb5"
PERFORMER "Pharoah Sanders"
TITLE "Save Our Children"
FILE "01. Save Our Children.wav" WAVE
TRACK 01 AUDIO
TITLE "Save Our Children"
PERFORMER "Pharoah Sanders"
INDEX 01 00:00:00
FILE "02. Midnight In Berkeley Square.wav" WAVE
TRACK 02 AUDIO
TITLE "Midnight In Berkeley Square"
PERFORMER "Pharoah Sanders"
INDEX 01 00:00:00
FILE "03. Jewels Of Love.wav" WAVE
TRACK 03 AUDIO
TITLE "Jewels Of Love"
PERFORMER "Pharoah Sanders"
INDEX 01 00:00:00
FILE "04. Kazuko.wav" WAVE
TRACK 04 AUDIO
TITLE "Kazuko"
PERFORMER "Pharoah Sanders"
INDEX 01 00:00:00
FILE "05. The Ancient Sounds.wav" WAVE
TRACK 05 AUDIO
TITLE "The Ancient Sounds"
PERFORMER "Pharoah Sanders"
INDEX 01 00:00:00
FILE "06. Far-Off Sand.wav" WAVE
TRACK 06 AUDIO
TITLE "Far-Off Sand"
PERFORMER "Pharoah Sanders"
INDEX 01 00:00:00
 
Лог проверки качества
d:\>d:\aucdtect -d/-m0 d:\zzz\*.wav
auCDtect: CD records authenticity detector, version 0.8.2
Copyright (c) 2004 Oleg Berngardt. All rights reserved.
Copyright (c) 2004 Alexander Djourik. All rights reserved.
------------------------------------------------------------
Processing file: [00. 01. Save Our Children.wav]
------------------------------------------------------------
This track looks like CDDA with probability 100%
------------------------------------------------------------
Processing file: [00. 02. Midnight In Berkeley Square.wav]
------------------------------------------------------------
This track looks like CDDA with probability 100%
------------------------------------------------------------
Processing file: [00. 03. Jewels Of Love.wav]
------------------------------------------------------------
This track looks like CDDA with probability 99%
------------------------------------------------------------
Processing file: [00. 04. Kazuko.wav]
------------------------------------------------------------
This track looks like CDDA with probability 100%
------------------------------------------------------------
Processing file: [00. 05. The Ancient Sounds.wav]
------------------------------------------------------------
This track looks like CDDA with probability 100%
------------------------------------------------------------
Processing file: [00. 06. Far-Off Sand.wav]
------------------------------------------------------------
This track looks like CDDA with probability 100%
------------------------------------------------------------
Final Conclusion:
------------------------------------------------------------
These tracks looks like CDDA with probability 100%
Доп. информация:
 
Original Album Info
Label:
Verve Records
Catalog#:
314 557 297-2
Format:
CD
Country:
US
Released:
02 Feb 1999
Engineer - Robert Musso
Producer - Bill Laswell
Mastered By - Michael Fossenkemper
Recorded and mixed at Orange Music, West Orange, NJ
Mastered at Turtle Tone Studio, NYC
 
Состав
Bass [Acoustic] - Alex Blake
Drums, Tabla, Percussion - Trilok Gurtu
Harmonium - Tony Cedras
Organ, Piano [Electric], Synthesizer - Bernie Worrell
Piano, Harmonium - William Henderson
Saxophone [Tenor, Soprano], Reeds [Double], Percussion, Voice - Pharoah Sanders
Synthesizer, Programmed By - Jeff Bova
Tabla, Voice - Zakir Hussain
19:56
269
Нет комментариев. Ваш будет первым!