Поиск

(contemporary jazz) Elvis Stanic Group - Mantana - 2001, FLAC (tracks), lossless

(contemporary jazz) Elvis Stanic Group - Mantana - 2001, FLAC (tracks), lossless
Треклист:
Elvis Stanic Group / Mantana
Жанр: contemporary jazz
Страна-производитель диска: Croatia
Год издания: 2001
Издатель (лейбл): Croatia Records
Номер по каталогу: CD 5454441
Страна: Croatia
Аудиокодек: FLAC (*.flac)
Тип рипа: tracks + cue
Битрейт аудио: lossless
Продолжительность: 00:59:37
Источник (релизер): personnal
Наличие сканов в содержимом раздачи: да
Треклист:
01 - Walking The Spring
02 - The Graceland
03 - Mantana
04 - Samba Tala
05 - Wonderful World
06 - Little Star
07 - Did You Not?
08 - Tha Dhi Heyo
09 - Pleasent Talk
10 - Asram
11 - The Done
12 - Prayer
 
Лог создания рипа
Exact Audio Copy V1.0 beta 3 from 29. August 2011
EAC extraction logfile from 29. April 2012, 20:16
Elvis Stanic Group / Mantana
Used drive : ATAPI DVD A DH20A4P Adapter: 2 ID: 1
Read mode : Secure
Utilize accurate stream : Yes
Defeat audio cache : Yes
Make use of C2 pointers : No
Read offset correction : 6
Overread into Lead-In and Lead-Out : No
Fill up missing offset samples with silence : Yes
Delete leading and trailing silent blocks : No
Null samples used in CRC calculations : Yes
Used interface : Native Win32 interface for Win NT & 2000
Gap handling : Appended to previous track
Used output format : User Defined Encoder
Selected bitrate : 896 kBit/s
Quality : High
Add ID3 tag : No
Command line compressor : C:\Program Files\Exact Audio Copy\FLAC\FLAC.EXE
Additional command line options : -V -8 -T "Genre=%genre%" -T "Artist=%artist%" -T "Title=%title%" -T "Album=%albumtitle%" -T "Date=%year%" -T "Tracknumber=%tracknr%" -T "Comment=%comment%" %source%
TOC of the extracted CD
Track | Start | Length | Start sector | End sector
---------------------------------------------------------
1 | 0:00.00 | 4:23.15 | 0 | 19739
2 | 4:23.15 | 5:10.51 | 19740 | 43040
3 | 9:33.66 | 4:01.25 | 43041 | 61140
4 | 13:35.16 | 6:51.44 | 61141 | 92009
5 | 20:26.60 | 4:29.00 | 92010 | 112184
6 | 24:55.60 | 4:35.22 | 112185 | 132831
7 | 29:31.07 | 6:33.11 | 132832 | 162317
8 | 36:04.18 | 5:40.74 | 162318 | 187891
9 | 41:45.17 | 4:11.51 | 187892 | 206767
10 | 45:56.68 | 6:08.58 | 206768 | 234425
11 | 52:05.51 | 4:05.48 | 234426 | 252848
12 | 56:11.24 | 3:22.10 | 252849 | 268008
Track 1
Filename D:\Music\Jazz\Elvis Stanic Group - Mantana\01 Waking The Spring.wav
Pre-gap length 0:00:02.00
Peak level 93.1 %
Extraction speed 2.1 X
Track quality 100.0 %
Test CRC FD6F8C69
Copy CRC FD6F8C69
Accurately ripped (confidence 1) [FF94B510] (AR v1)
Copy OK
Track 2
Filename D:\Music\Jazz\Elvis Stanic Group - Mantana\02 The Graceland.wav
Pre-gap length 0:00:00.54
Peak level 98.8 %
Extraction speed 2.3 X
Track quality 100.0 %
Test CRC DDCB9816
Copy CRC DDCB9816
Accurately ripped (confidence 1) [139B88B5] (AR v1)
Copy OK
Track 3
Filename D:\Music\Jazz\Elvis Stanic Group - Mantana\03 Mantana.wav
Pre-gap length 0:00:00.55
Peak level 98.8 %
Extraction speed 2.1 X
Track quality 99.9 %
Test CRC 155B30B0
Copy CRC 155B30B0
Accurately ripped (confidence 1) [0A3E88E9] (AR v1)
Copy OK
Track 4
Filename D:\Music\Jazz\Elvis Stanic Group - Mantana\04 Samba Tala.wav
Pre-gap length 0:00:00.56
Peak level 98.8 %
Extraction speed 2.8 X
Track quality 100.0 %
Test CRC 193399D2
Copy CRC 193399D2
Accurately ripped (confidence 1) [4D1B53F0] (AR v1)
Copy OK
Track 5
Filename D:\Music\Jazz\Elvis Stanic Group - Mantana\05 Wonderful World.wav
Pre-gap length 0:00:00.54
Peak level 98.8 %
Extraction speed 2.9 X
Track quality 100.0 %
Test CRC A00864BF
Copy CRC A00864BF
Accurately ripped (confidence 1) [5E0DE773] (AR v1)
Copy OK
Track 6
Filename D:\Music\Jazz\Elvis Stanic Group - Mantana\06 Little Star.wav
Peak level 98.8 %
Extraction speed 3.0 X
Track quality 100.0 %
Test CRC F2ACE6C6
Copy CRC F2ACE6C6
Accurately ripped (confidence 1) [EB05371E] (AR v1)
Copy OK
Track 7
Filename D:\Music\Jazz\Elvis Stanic Group - Mantana\07 Did You Not.wav
Pre-gap length 0:00:00.55
Peak level 98.8 %
Extraction speed 3.3 X
Track quality 100.0 %
Test CRC 28817CE9
Copy CRC 28817CE9
Accurately ripped (confidence 1) [9BE91B7E] (AR v1)
Copy OK
Track 8
Filename D:\Music\Jazz\Elvis Stanic Group - Mantana\08 Tha Dhi Heyo.wav
Pre-gap length 0:00:00.32
Peak level 98.8 %
Extraction speed 3.4 X
Track quality 100.0 %
Test CRC 10D8AA66
Copy CRC 10D8AA66
Accurately ripped (confidence 1) [79D1E880] (AR v1)
Copy OK
Track 9
Filename D:\Music\Jazz\Elvis Stanic Group - Mantana\09 Pleasant Talk.wav
Pre-gap length 0:00:00.56
Peak level 98.8 %
Extraction speed 2.7 X
Track quality 99.9 %
Test CRC 1AD293AE
Copy CRC 1AD293AE
Accurately ripped (confidence 1) [FA0C5832] (AR v1)
Copy OK
Track 10
Filename D:\Music\Jazz\Elvis Stanic Group - Mantana\10 Asram.wav
Pre-gap length 0:00:00.56
Peak level 98.9 %
Extraction speed 3.8 X
Track quality 100.0 %
Test CRC 7159A1B4
Copy CRC 7159A1B4
Accurately ripped (confidence 1) [2D764526] (AR v1)
Copy OK
Track 11
Filename D:\Music\Jazz\Elvis Stanic Group - Mantana\11 The Done.wav
Pre-gap length 0:00:00.51
Peak level 98.8 %
Extraction speed 3.7 X
Track quality 100.0 %
Test CRC AB343D98
Copy CRC AB343D98
Accurately ripped (confidence 1) [E7AC6FFD] (AR v1)
Copy OK
Track 12
Filename D:\Music\Jazz\Elvis Stanic Group - Mantana\12 Prayer.wav
Pre-gap length 0:00:00.56
Peak level 98.8 %
Extraction speed 3.6 X
Track quality 100.0 %
Test CRC 86EFF543
Copy CRC 86EFF543
Accurately ripped (confidence 1) [881B464F] (AR v1)
Copy OK
All tracks accurately ripped
No errors occurred
End of status report
==== Log checksum 6E4D0543C44F4FB9B7F2A2E9B11F1D4442C77724B42C37E04498B1C9F0DED84A ====
 
Содержание индексной карты (.CUE)
REM GENRE Jazz
REM DATE 2001
REM DISCID B40DF50C
REM COMMENT "ExactAudioCopy v1.0b3"
PERFORMER "Elvis Stanic Group"
TITLE "Mantana"
FILE "01 Waking The Spring.wav" WAVE
TRACK 01 AUDIO
TITLE "Waking The Spring"
PERFORMER "Elvis Stanic Group"
INDEX 01 00:00:00
TRACK 02 AUDIO
TITLE "The Graceland"
PERFORMER "Elvis Stanic Group"
INDEX 00 04:22:36
FILE "02 The Graceland.wav" WAVE
INDEX 01 00:00:00
TRACK 03 AUDIO
TITLE "Mantana"
PERFORMER "Elvis Stanic Group"
INDEX 00 05:09:71
FILE "03 Mantana.wav" WAVE
INDEX 01 00:00:00
TRACK 04 AUDIO
TITLE "Samba Tala"
PERFORMER "Elvis Stanic Group"
INDEX 00 04:00:44
FILE "04 Samba Tala.wav" WAVE
INDEX 01 00:00:00
TRACK 05 AUDIO
TITLE "Wonderful World"
PERFORMER "Elvis Stanic Group"
INDEX 00 06:50:65
FILE "05 Wonderful World.wav" WAVE
INDEX 01 00:00:00
FILE "06 Little Star.wav" WAVE
TRACK 06 AUDIO
TITLE "Little Star"
PERFORMER "Elvis Stanic Group"
INDEX 01 00:00:00
TRACK 07 AUDIO
TITLE "Did You Not?"
PERFORMER "Elvis Stanic Group"
INDEX 00 04:34:42
FILE "07 Did You Not.wav" WAVE
INDEX 01 00:00:00
TRACK 08 AUDIO
TITLE "Tha Dhi Heyo"
PERFORMER "Elvis Stanic Group"
INDEX 00 06:32:54
FILE "08 Tha Dhi Heyo.wav" WAVE
INDEX 01 00:00:00
TRACK 09 AUDIO
TITLE "Pleasant Talk"
PERFORMER "Elvis Stanic Group"
INDEX 00 05:40:18
FILE "09 Pleasant Talk.wav" WAVE
INDEX 01 00:00:00
TRACK 10 AUDIO
TITLE "Asram"
PERFORMER "Elvis Stanic Group"
INDEX 00 04:10:70
FILE "10 Asram.wav" WAVE
INDEX 01 00:00:00
TRACK 11 AUDIO
TITLE "The Done"
PERFORMER "Elvis Stanic Group"
INDEX 00 06:08:07
FILE "11 The Done.wav" WAVE
INDEX 01 00:00:00
TRACK 12 AUDIO
TITLE "Prayer"
PERFORMER "Elvis Stanic Group"
INDEX 00 04:04:67
FILE "12 Prayer.wav" WAVE
INDEX 01 00:00:00
 
Об исполнителе (группе)
«Elvis Stanić Group» is a jazz fusion band which connects mediteranean fluidness with fiercing latin rhythm and contemporary jazz sound. The band performes original music, with starting point in modern electric jazz, expanding it to the edge of traditional, latin or even the New Age music frontiers. Elvis Stanić, one of the best Croatian contemporary jazz fusion guitarist, multiinstrumentalist and the most awarded new generation jazz composer, is the leader of the "Group". As a composer, Elvis Stanić explores a Traditional Croatian music, connecting it with diverse world traditions, thus creating a new and yet unheard genre.
http://www.elvis-stanic.hr/index_en.html
 
Об альбоме (сборнике)
Recorded and mixed by Nenad Zubak at Trooly Studios, Zagreb, October 2001
 
Состав
Elvis Stanic - guitars, piano
Ivan Popeskic - piano, keyboards
Primoz Fleischman - soprano & tenor sax
Ziga Golob - upright bass
Marko Lazaric - drums
Brane Gazdik - percussion
Guests
Nimay Ashis Roy - tabla
Neven Franges - piano
Olja Desic - vocal
Dudo Vorich - bass
03:39
299
Нет комментариев. Ваш будет первым!