Вы используете незарегистрированную версию компонента "Вкладки"!

Поиск

(Contemporary Jazz, ECM) Anders Jormin - Xieyi - 2001, FLAC (image+.cue), lossless

Треклист:
Anders Jormin - Xieyi
Жанр: Contemporary Jazz, ECM
Год выпуска диска: 2001
Производитель диска: Germany
Аудио кодек: FLAC
Тип рипа: image+.cue
Битрейт аудио: lossless
Продолжительность: 1:08:30
Трэклист:
1. Choral
2. Giv mig ej glans
3. I denna ljuva sommartid
4. Gracias a la vida
5. Idas sommarvisa
6. Xieyi
7. Decimas
8. Och kanske ar det natt
9. Sul tasto
10. Tenk
11. Sonett till Cornelis
12. Romance-distance
13. Scents
14. Fragancia
15. Q
16. War Orphans
17. Choral
Доп. информация:
Состав:
Anders Jormin - double-bass
Robin Rydqvist - trumpet, flugelhorn
Krister Petersson - french horn
Lars-Goran Carlsson - trombone
Niclas Rydh - bass trombone
 
Отчет ЕАС
Exact Audio Copy V0.99 prebeta 3 from 28. July 2007
EAC extraction logfile from 21. April 2010, 17:40
Anders Jormin / Xieyi
Used drive : HL-DT-STDVD-RAM GSA-H55N Adapter: 0 ID: 0
Read mode : Secure
Utilize accurate stream : Yes
Defeat audio cache : Yes
Make use of C2 pointers : No
Read offset correction : 102
Overread into Lead-In and Lead-Out : No
Fill up missing offset samples with silence : Yes
Delete leading and trailing silent blocks : No
Null samples used in CRC calculations : No
Used interface : Installed external ASPI interface
Used output format : User Defined Encoder
Selected bitrate : 768 kBit/s
Quality : High
Add ID3 tag : No
Command line compressor : C:\Program Files\Exact Audio Copy\FLAC\FLAC.EXE
Additional command line options : -6 -V -T "ARTIST=%a" -T "TITLE=%t" -T "ALBUM=%g" -T "DATE=%y" -T "TRACKNUMBER=%n" -T "GENRE=%m" -T "COMMENT=%e" %s -o %d
TOC of the extracted CD
Track | Start | Length | Start sector | End sector
---------------------------------------------------------
1 | 0:00.00 | 1:49.24 | 0 | 8198
2 | 1:49.24 | 6:04.36 | 8199 | 35534
3 | 7:53.60 | 4:57.43 | 35535 | 57852
4 | 12:51.28 | 3:01.00 | 57853 | 71427
5 | 15:52.28 | 6:03.72 | 71428 | 98724
6 | 21:56.25 | 0:55.68 | 98725 | 102917
7 | 22:52.18 | 5:36.69 | 102918 | 128186
8 | 28:29.12 | 4:11.34 | 128187 | 147045
9 | 32:40.46 | 1:16.51 | 147046 | 152796
10 | 33:57.22 | 8:47.69 | 152797 | 192390
11 | 42:45.16 | 5:30.11 | 192391 | 217151
12 | 48:15.27 | 1:09.31 | 217152 | 222357
13 | 49:24.58 | 3:05.33 | 222358 | 236265
14 | 52:30.16 | 4:11.42 | 236266 | 255132
15 | 56:41.58 | 2:16.32 | 255133 | 265364
16 | 58:58.15 | 7:40.15 | 265365 | 299879
17 | 66:38.30 | 1:51.38 | 299880 | 308242
Range status and errors
Selected range
Filename C:\Users\Миша\Documents\Anders Jormin - Xieyi\Anders Jormin - Xieyi.wav
Peak level 98.8 %
Range quality 100.0 %
Copy CRC 9D5F3175
Copy OK
No errors occurred
AccurateRip summary
Track 1 accurately ripped (confidence 5) [3811A4D8]
Track 2 accurately ripped (confidence 5) [732C7CCC]
Track 3 accurately ripped (confidence 5) [64F7BEB2]
Track 4 accurately ripped (confidence 5) [B0E97347]
Track 5 accurately ripped (confidence 5) [800EF07D]
Track 6 accurately ripped (confidence 5) [6E4B0723]
Track 7 accurately ripped (confidence 5) [83A4F40F]
Track 8 accurately ripped (confidence 5) [9A5BCBC5]
Track 9 accurately ripped (confidence 5) [EEDB1ACD]
Track 10 accurately ripped (confidence 5) [111AA8CF]
Track 11 accurately ripped (confidence 5) [03D97BCC]
Track 12 accurately ripped (confidence 5) [4987D6FF]
Track 13 accurately ripped (confidence 5) [DB46188E]
Track 14 accurately ripped (confidence 5) [1682F5C4]
Track 15 accurately ripped (confidence 5) [FEF8C580]
Track 16 accurately ripped (confidence 5) [B3C91798]
Track 17 accurately ripped (confidence 5) [9654C55F]
All tracks accurately ripped
End of status report
За рип этого альбома большое спасибо mishka1981
Any questions -> support@pro-jazz.com. По всем вопросам пишите -> support@pro-jazz.com
21:40
116
Нет комментариев. Ваш будет первым!