Вы используете незарегистрированную версию компонента "Вкладки"!

Поиск

(Contemporary Jazz) [CD] Shahin Novrasli, Nathan Peck, Ari Hoenig - Bayati - 2014, FLAC (tracks+.cue), lossless

(Contemporary Jazz) [CD] Shahin Novrasli, Nathan Peck, Ari Hoenig - Bayati - 2014, FLAC (tracks+.cue), lossless
Треклист:
Shahin Novrasli, Nathan Peck, Ari Hoenig - Bayati
Жанр: Contemporary Jazz
Носитель: CD
Год издания: 2014
Издатель (лейбл): Bee Jazz
Номер по каталогу: Bee 063
Аудиокодек: FLAC (*.flac)
Тип рипа: tracks+.cue
Битрейт аудио: lossless
Продолжительность: 01:02:41
Источник (релизер): dtromp
Наличие сканов в содержимом раздачи: да

SHAHIN NOVRASLI : Piano
NATHAN PECK : Double Bass
ARI HOENIG : Drums

01. Nocturne For Natavan [05:36]
02. 1001 Nights [02:58]
03. Prelude In E Minor [06:42]
04. Bayati Shiraz [10:24]
05. From Mill To Station [04:14]
06. Insomnia [04:57]
07. Elinde Sazin Qurbani [06:07]
08. Baga Girdim Uzume [03:17]
09. Autumn Of Love [07:38]
10. Fir & Giz [10:45]

 
Лог создания рипа
Exact Audio Copy V1.0 beta 3 from 29. August 2011
EAC extraction logfile from 10. May 2014, 14:57
Shahin Novrasli / Bayati
Used drive : ATAPI iHBS112 2 Adapter: 2 ID: 0
Read mode : Secure
Utilize accurate stream : Yes
Defeat audio cache : Yes
Make use of C2 pointers : No
Read offset correction : 6
Overread into Lead-In and Lead-Out : No
Fill up missing offset samples with silence : Yes
Delete leading and trailing silent blocks : No
Null samples used in CRC calculations : Yes
Used interface : Native Win32 interface for Win NT & 2000
Gap handling : Appended to previous track
Used output format : User Defined Encoder
Selected bitrate : 1024 kBit/s
Quality : High
Add ID3 tag : No
Command line compressor : C:\Program Files\FLAC Frontend\tools\flac.exe
Additional command line options : -8 -V -T "ARTIST=%artist%" -T "TITLE=%title%" -T "ALBUM=%albumtitle%" -T "DATE=%year%" -T "TRACKNUMBER=%tracknr%" -T "TOTALTRACKS=%numtracks%" -T "GENRE=%genre%" -T "ALBUMARTIST=%albumartist%" -T "ALBUM ARTIST=%albumartist%" -T "DISCNUMBER=%cdnumber%" -T "TOTALDISCS=%totalcds%" -T "COMMENT=EAC Secure Mode, Test & Copy, AccurateRip, FLAC -8" %source%
TOC of the extracted CD
Track | Start | Length | Start sector | End sector
---------------------------------------------------------
1 | 0:00.00 | 5:36.66 | 0 | 25265
2 | 5:36.66 | 2:58.60 | 25266 | 38675
3 | 8:35.51 | 6:42.31 | 38676 | 68856
4 | 15:18.07 | 10:24.46 | 68857 | 115702
5 | 25:42.53 | 4:14.22 | 115703 | 134774
6 | 29:57.00 | 4:57.00 | 134775 | 157049
7 | 34:54.00 | 6:07.05 | 157050 | 184579
8 | 41:01.05 | 3:17.34 | 184580 | 199388
9 | 44:18.39 | 7:38.13 | 199389 | 233751
10 | 51:56.52 | 10:45.11 | 233752 | 282137
Track 1
Filename O:\DL\Shahin Novrasli - Bayati (2013) [FLAC]\01 - Nocturne For Natavan.wav
Pre-gap length 0:00:02.00
Peak level 99.6 %
Extraction speed 2.0 X
Track quality 100.0 %
Test CRC 93A52034
Copy CRC 93A52034
Track not present in AccurateRip database
Copy OK
Track 2
Filename O:\DL\Shahin Novrasli - Bayati (2013) [FLAC]\02 - 1001 Nights.wav
Peak level 99.5 %
Extraction speed 2.1 X
Track quality 100.0 %
Test CRC 83031D1A
Copy CRC 83031D1A
Track not present in AccurateRip database
Copy OK
Track 3
Filename O:\DL\Shahin Novrasli - Bayati (2013) [FLAC]\03 - Prelude In E Minor.wav
Peak level 99.0 %
Extraction speed 2.5 X
Track quality 100.0 %
Test CRC 4702A8D0
Copy CRC 4702A8D0
Track not present in AccurateRip database
Copy OK
Track 4
Filename O:\DL\Shahin Novrasli - Bayati (2013) [FLAC]\04 - Bayati Shiraz.wav
Peak level 100.0 %
Extraction speed 3.0 X
Track quality 100.0 %
Test CRC E3B02BD3
Copy CRC E3B02BD3
Track not present in AccurateRip database
Copy OK
Track 5
Filename O:\DL\Shahin Novrasli - Bayati (2013) [FLAC]\05 - From Mill To Station.wav
Peak level 98.9 %
Extraction speed 2.3 X
Track quality 99.9 %
Test CRC 0FB3C747
Copy CRC 0FB3C747
Track not present in AccurateRip database
Copy OK
Track 6
Filename O:\DL\Shahin Novrasli - Bayati (2013) [FLAC]\06 - Insomnia.wav
Peak level 99.3 %
Extraction speed 3.2 X
Track quality 100.0 %
Test CRC C2BCC826
Copy CRC C2BCC826
Track not present in AccurateRip database
Copy OK
Track 7
Filename O:\DL\Shahin Novrasli - Bayati (2013) [FLAC]\07 - Elinde Sazin Qurbani.wav
Peak level 97.3 %
Extraction speed 3.5 X
Track quality 100.0 %
Test CRC 8A394BF7
Copy CRC 8A394BF7
Track not present in AccurateRip database
Copy OK
Track 8
Filename O:\DL\Shahin Novrasli - Bayati (2013) [FLAC]\08 - Baga Girdim Uzume.wav
Peak level 99.8 %
Extraction speed 3.4 X
Track quality 100.0 %
Test CRC 08EFD694
Copy CRC 08EFD694
Track not present in AccurateRip database
Copy OK
Track 9
Filename O:\DL\Shahin Novrasli - Bayati (2013) [FLAC]\09 - Autumn Of Love.wav
Peak level 100.0 %
Extraction speed 3.2 X
Track quality 99.9 %
Test CRC 25CDAF63
Copy CRC 25CDAF63
Track not present in AccurateRip database
Copy OK
Track 10
Filename O:\DL\Shahin Novrasli - Bayati (2013) [FLAC]\10 - Fir & Giz.wav
Peak level 100.0 %
Extraction speed 4.2 X
Track quality 100.0 %
Test CRC 1E9C4999
Copy CRC 1E9C4999
Track not present in AccurateRip database
Copy OK
None of the tracks are present in the AccurateRip database
No errors occurred
End of status report
---- CUETools DB Plugin V2.1.3
[CTDB TOCID: X1HB7qIqhT9hHlyr4zymMzsP75s-] disk not present in database, Submit result: X1HB7qIqhT9hHlyr4zymMzsP75s- has been uploaded
==== Log checksum 592EB5B91D97FEA90D7F8C7AE46F111715668C463192C8EEE81C68D4EDDCD6B6 ====
 
Содержание индексной карты (.CUE)
REM GENRE Jazz
REM DATE 2013
REM DISCID 8B0EB10A
REM COMMENT "ExactAudioCopy v1.0b3"
PERFORMER "Shahin Novrasli"
TITLE "Bayati"
FILE "01 - Nocturne For Natavan.wav" WAVE
TRACK 01 AUDIO
TITLE "Nocturne For Natavan"
PERFORMER "Shahin Novrasli"
INDEX 01 00:00:00
FILE "02 - 1001 Nights.wav" WAVE
TRACK 02 AUDIO
TITLE "1001 Nights"
PERFORMER "Shahin Novrasli"
INDEX 01 00:00:00
FILE "03 - Prelude In E Minor.wav" WAVE
TRACK 03 AUDIO
TITLE "Prelude In E Minor"
PERFORMER "Shahin Novrasli"
INDEX 01 00:00:00
FILE "04 - Bayati Shiraz.wav" WAVE
TRACK 04 AUDIO
TITLE "Bayati Shiraz"
PERFORMER "Shahin Novrasli"
INDEX 01 00:00:00
FILE "05 - From Mill To Station.wav" WAVE
TRACK 05 AUDIO
TITLE "From Mill To Station"
PERFORMER "Shahin Novrasli"
INDEX 01 00:00:00
FILE "06 - Insomnia.wav" WAVE
TRACK 06 AUDIO
TITLE "Insomnia"
PERFORMER "Shahin Novrasli"
INDEX 01 00:00:00
FILE "07 - Elinde Sazin Qurbani.wav" WAVE
TRACK 07 AUDIO
TITLE "Elinde Sazin Qurbani"
PERFORMER "Shahin Novrasli"
INDEX 01 00:00:00
FILE "08 - Baga Girdim Uzume.wav" WAVE
TRACK 08 AUDIO
TITLE "Baga Girdim Uzume"
PERFORMER "Shahin Novrasli"
INDEX 01 00:00:00
FILE "09 - Autumn Of Love.wav" WAVE
TRACK 09 AUDIO
TITLE "Autumn Of Love"
PERFORMER "Shahin Novrasli"
INDEX 01 00:00:00
FILE "10 - Fir & Giz.wav" WAVE
TRACK 10 AUDIO
TITLE "Fir & Giz"
PERFORMER "Shahin Novrasli"
INDEX 01 00:00:00
Any questions - support@pro-jazz.com. Есть вопросы - support@pro-jazz.com
17:40
224
Нет комментариев. Ваш будет первым!