Поиск

(Contemporary Jazz) [CD] R+R=NOW - Collagically Speaking - 2018, FLAC (tracks+.cue), lossless

(Contemporary Jazz) [CD] R+R=NOW - Collagically Speaking - 2018, FLAC (tracks+.cue), lossless
Треклист:
R+R=NOW / Collagically Speaking
Жанр: Contemporary Jazz
Носитель: CD
Год издания: 2018
Издатель (лейбл): Blue Note Records
Номер по каталогу: 00602567554318
Аудиокодек: FLAC (*.flac)
Тип рипа: tracks+.cue
Битрейт аудио: lossless
Продолжительность: 01:13:24
Источник (релизер): REDACTED
Наличие сканов в содержимом раздачи: нет
Треклист:
01. Change Of Tone (7:33)
02. Awake To You (8:15)
03. By Design (5:27)
04. Resting Warrior (9:51)
05. Needed You Still (feat. Omari Hardwick) (6:10)
06. Colors In The Dark (4:49)
07. The Night In Question (feat. Terry Crews) (7:41)
08. Reflect Reprise (feat. Stalley) (6:42)
09. Her=Now (feat. Amanda Seales) (6:45)
10. Respond (5:22)
11. Been On My Mind (feat. Amber Navran) (4:50)
 
Лог создания рипа
X Lossless Decoder version 20170729 (150.3)
XLD extraction logfile from 2018-08-13 09:45:07 +0300
R+R=Now / Collagically Speaking
Used drive : Apple SuperDrive (revision 2.00)
Media type : Pressed CD
Ripper mode : XLD Secure Ripper
Disable audio cache : OK for the drive with a cache less than 1375KiB
Make use of C2 pointers : NO
Read offset correction : 6
Max retry count : 20
Gap status : Analyzed, Appended (except HTOA)
TOC of the extracted CD
Track | Start | Length | Start sector | End sector
---------------------------------------------------------
1 | 00:00:00 | 07:32:56 | 0 | 33955
2 | 07:32:56 | 08:14:62 | 33956 | 71067
3 | 15:47:43 | 05:27:11 | 71068 | 95603
4 | 21:14:54 | 09:51:19 | 95604 | 139947
5 | 31:05:73 | 06:09:41 | 139948 | 167663
6 | 37:15:39 | 04:48:42 | 167664 | 189305
7 | 42:04:06 | 07:41:23 | 189306 | 223903
8 | 49:45:29 | 06:42:01 | 223904 | 254054
9 | 56:27:30 | 06:44:40 | 254055 | 284394
10 | 63:11:70 | 05:21:74 | 284395 | 308543
11 | 68:33:69 | 04:49:67 | 308544 | 330285
AccurateRip Summary (DiscID: 0020062a-011240f4-ba11330b)
Track 01 : OK (v2, confidence 2/2)
Track 02 : OK (v2, confidence 2/2)
Track 03 : OK (v2, confidence 2/2)
Track 04 : OK (v2, confidence 2/2)
Track 05 : OK (v2, confidence 2/2)
Track 06 : OK (v2, confidence 2/2)
Track 07 : OK (v2, confidence 2/2)
Track 08 : OK (v2, confidence 2/2)
Track 09 : OK (v2, confidence 2/2)
Track 10 : OK (v2, confidence 2/2)
Track 11 : OK (v2, confidence 1/2)
->All tracks accurately ripped.
All Tracks
Album gain : -7.75 dB
Peak : 1.000000
Statistics
Read error : 0
Jitter error (maybe fixed) : 0
Retry sector count : 0
Damaged sector count : 0
Track 01
Filename : /Volumes/Hg/NWCD/R+R=Now - Collagically Speaking (2018) [FLAC]/01 Change of Tone.flac
Pre-gap length : 00:02:00
Track gain : -7.94 dB
Peak : 0.999756
CRC32 hash (test run) : 52C2920B
CRC32 hash : 52C2920B
CRC32 hash (skip zero) : F4E695F7
AccurateRip v1 signature : 5FE3BE3D
AccurateRip v2 signature : 160A7530
->Accurately ripped (v2, confidence 2/2)
Statistics
Read error : 0
Jitter error (maybe fixed) : 0
Retry sector count : 0
Damaged sector count : 0
Track 02
Filename : /Volumes/Hg/NWCD/R+R=Now - Collagically Speaking (2018) [FLAC]/02 Awake to You.flac
Track gain : -7.91 dB
Peak : 0.981171
CRC32 hash (test run) : FCF9DE58
CRC32 hash : FCF9DE58
CRC32 hash (skip zero) : F8532485
AccurateRip v1 signature : FCC98850
AccurateRip v2 signature : 79160EC2
->Accurately ripped (v2, confidence 2/2)
Statistics
Read error : 0
Jitter error (maybe fixed) : 0
Retry sector count : 0
Damaged sector count : 0
Track 03
Filename : /Volumes/Hg/NWCD/R+R=Now - Collagically Speaking (2018) [FLAC]/03 By Design.flac
Track gain : -7.88 dB
Peak : 0.977783
CRC32 hash (test run) : 03C1E03C
CRC32 hash : 03C1E03C
CRC32 hash (skip zero) : E1D8F2FB
AccurateRip v1 signature : 2931D9AC
AccurateRip v2 signature : 6F0D717C
->Accurately ripped (v2, confidence 2/2)
Statistics
Read error : 0
Jitter error (maybe fixed) : 0
Retry sector count : 0
Damaged sector count : 0
Track 04
Filename : /Volumes/Hg/NWCD/R+R=Now - Collagically Speaking (2018) [FLAC]/04 Resting Warrior.flac
Track gain : -7.91 dB
Peak : 0.999969
CRC32 hash (test run) : FD8ACF82
CRC32 hash : FD8ACF82
CRC32 hash (skip zero) : C5FEE61C
AccurateRip v1 signature : C963FC74
AccurateRip v2 signature : 4450929C
->Accurately ripped (v2, confidence 2/2)
Statistics
Read error : 0
Jitter error (maybe fixed) : 0
Retry sector count : 0
Damaged sector count : 0
Track 05
Filename : /Volumes/Hg/NWCD/R+R=Now - Collagically Speaking (2018) [FLAC]/05 Needed You Still.flac
Track gain : -6.47 dB
Peak : 0.980774
CRC32 hash (test run) : FC684A98
CRC32 hash : FC684A98
CRC32 hash (skip zero) : BC45163A
AccurateRip v1 signature : C2C7DE3E
AccurateRip v2 signature : C3B6EBC2
->Accurately ripped (v2, confidence 2/2)
Statistics
Read error : 0
Jitter error (maybe fixed) : 0
Retry sector count : 0
Damaged sector count : 0
Track 06
Filename : /Volumes/Hg/NWCD/R+R=Now - Collagically Speaking (2018) [FLAC]/06 Colors in the Dark.flac
Track gain : -6.26 dB
Peak : 1.000000
CRC32 hash (test run) : A18D3E6A
CRC32 hash : A18D3E6A
CRC32 hash (skip zero) : 147D5DBA
AccurateRip v1 signature : 488EF3B0
AccurateRip v2 signature : B22F1EC3
->Accurately ripped (v2, confidence 2/2)
Statistics
Read error : 0
Jitter error (maybe fixed) : 0
Retry sector count : 0
Damaged sector count : 0
Track 07
Filename : /Volumes/Hg/NWCD/R+R=Now - Collagically Speaking (2018) [FLAC]/07 The Night In Question.flac
Track gain : -9.24 dB
Peak : 0.992065
CRC32 hash (test run) : 6FEA5302
CRC32 hash : 6FEA5302
CRC32 hash (skip zero) : 5D25F1E2
AccurateRip v1 signature : F2D85E81
AccurateRip v2 signature : D4E498D5
->Accurately ripped (v2, confidence 2/2)
Statistics
Read error : 0
Jitter error (maybe fixed) : 0
Retry sector count : 0
Damaged sector count : 0
Track 08
Filename : /Volumes/Hg/NWCD/R+R=Now - Collagically Speaking (2018) [FLAC]/08 Reflect Reprise.flac
Track gain : -8.33 dB
Peak : 0.981964
CRC32 hash (test run) : 2C030040
CRC32 hash : 2C030040
CRC32 hash (skip zero) : 37DF9391
AccurateRip v1 signature : 009A0EB3
AccurateRip v2 signature : FD496578
->Accurately ripped (v2, confidence 2/2)
Statistics
Read error : 0
Jitter error (maybe fixed) : 0
Retry sector count : 0
Damaged sector count : 0
Track 09
Filename : /Volumes/Hg/NWCD/R+R=Now - Collagically Speaking (2018) [FLAC]/09 Her=Now.flac
Track gain : -3.50 dB
Peak : 0.970001
CRC32 hash (test run) : 45302468
CRC32 hash : 45302468
CRC32 hash (skip zero) : 2D93B28A
AccurateRip v1 signature : 8FBC9C2B
AccurateRip v2 signature : D3C91E97
->Accurately ripped (v2, confidence 2/2)
Statistics
Read error : 0
Jitter error (maybe fixed) : 0
Retry sector count : 0
Damaged sector count : 0
Track 10
Filename : /Volumes/Hg/NWCD/R+R=Now - Collagically Speaking (2018) [FLAC]/10 Respond.flac
Track gain : -7.63 dB
Peak : 0.986389
CRC32 hash (test run) : C7C94B67
CRC32 hash : C7C94B67
CRC32 hash (skip zero) : 9E2187AF
AccurateRip v1 signature : 897E85AE
AccurateRip v2 signature : 43AD5E6D
->Accurately ripped (v2, confidence 2/2)
Statistics
Read error : 0
Jitter error (maybe fixed) : 0
Retry sector count : 0
Damaged sector count : 0
Track 11
Filename : /Volumes/Hg/NWCD/R+R=Now - Collagically Speaking (2018) [FLAC]/11 Been on My Mind.flac
Track gain : -7.00 dB
Peak : 0.979095
CRC32 hash (test run) : 1C3E4D32
CRC32 hash : 1C3E4D32
CRC32 hash (skip zero) : BC7BB75A
AccurateRip v1 signature : 9D5E8C3B
AccurateRip v2 signature : EAB26A71
->Accurately ripped (v2, confidence 1/2)
Statistics
Read error : 0
Jitter error (maybe fixed) : 0
Retry sector count : 0
Damaged sector count : 0
No errors occurred
End of status report
-----BEGIN XLD SIGNATURE-----
GGHUnZFtsi4zfUn9.Fq.BfYUxEiLOca5CHyDEbrnw.5gQ.fl7HDgOO_0YJSpqxEIm3WEMZONFCROO76CqsDfPoY8xX6zWnEpo54uaDS
-----END XLD SIGNATURE-----
 
Содержание индексной карты (.CUE)
TITLE "Collagically Speaking"
PERFORMER "R+R=Now"
CATALOG 0602567554318
REM GENRE "Jazz"
REM DATE "2018"
REM DISCNUMBER 1
REM TOTALDISCS 1
REM DISCID BA11330B
REM REPLAYGAIN_ALBUM_GAIN -7.75 dB
REM REPLAYGAIN_ALBUM_PEAK 1.000000
FILE "01 Change of Tone.flac" WAVE
TRACK 01 AUDIO
TITLE "Change of Tone"
PERFORMER "R+R=Now"
ISRC USUM71803981
FLAGS DCP
REM REPLAYGAIN_TRACK_GAIN -7.94 dB
REM REPLAYGAIN_TRACK_PEAK 0.999756
INDEX 01 00:00:00
FILE "02 Awake to You.flac" WAVE
TRACK 02 AUDIO
TITLE "Awake to You"
PERFORMER "R+R=Now"
ISRC USUM71803977
FLAGS DCP
REM REPLAYGAIN_TRACK_GAIN -7.91 dB
REM REPLAYGAIN_TRACK_PEAK 0.981171
INDEX 01 00:00:00
FILE "03 By Design.flac" WAVE
TRACK 03 AUDIO
TITLE "By Design"
PERFORMER "R+R=Now"
ISRC USUM71803978
FLAGS DCP
REM REPLAYGAIN_TRACK_GAIN -7.88 dB
REM REPLAYGAIN_TRACK_PEAK 0.977783
INDEX 01 00:00:00
FILE "04 Resting Warrior.flac" WAVE
TRACK 04 AUDIO
TITLE "Resting Warrior"
PERFORMER "R+R=Now"
ISRC USUM71803986
FLAGS DCP
REM REPLAYGAIN_TRACK_GAIN -7.91 dB
REM REPLAYGAIN_TRACK_PEAK 0.999969
INDEX 01 00:00:00
FILE "05 Needed You Still.flac" WAVE
TRACK 05 AUDIO
TITLE "Needed You Still"
PERFORMER "R+R=Now feat. Omari Hardwick"
ISRC USUM71803983
FLAGS DCP
REM REPLAYGAIN_TRACK_GAIN -6.47 dB
REM REPLAYGAIN_TRACK_PEAK 0.980774
INDEX 01 00:00:00
FILE "06 Colors in the Dark.flac" WAVE
TRACK 06 AUDIO
TITLE "Colors in the Dark"
PERFORMER "R+R=Now"
ISRC USUM71803982
FLAGS DCP
REM REPLAYGAIN_TRACK_GAIN -6.26 dB
REM REPLAYGAIN_TRACK_PEAK 1.000000
INDEX 01 00:00:00
FILE "07 The Night In Question.flac" WAVE
TRACK 07 AUDIO
TITLE "The Night In Question"
PERFORMER "R+R=Now feat. Terry Crews"
ISRC USUM71803987
FLAGS DCP
REM REPLAYGAIN_TRACK_GAIN -9.24 dB
REM REPLAYGAIN_TRACK_PEAK 0.992065
INDEX 01 00:00:00
FILE "08 Reflect Reprise.flac" WAVE
TRACK 08 AUDIO
TITLE "Reflect Reprise"
PERFORMER "R+R=Now feat. Stalley"
ISRC USUM71803985
FLAGS DCP
REM REPLAYGAIN_TRACK_GAIN -8.33 dB
REM REPLAYGAIN_TRACK_PEAK 0.981964
INDEX 01 00:00:00
FILE "09 Her=Now.flac" WAVE
TRACK 09 AUDIO
TITLE "Her=Now"
PERFORMER "R+R=Now feat. Amanda Seales"
ISRC USUM71803980
FLAGS DCP
REM REPLAYGAIN_TRACK_GAIN -3.50 dB
REM REPLAYGAIN_TRACK_PEAK 0.970001
INDEX 01 00:00:00
FILE "10 Respond.flac" WAVE
TRACK 10 AUDIO
TITLE "Respond"
PERFORMER "R+R=Now"
ISRC USUM71803984
FLAGS DCP
REM REPLAYGAIN_TRACK_GAIN -7.63 dB
REM REPLAYGAIN_TRACK_PEAK 0.986389
INDEX 01 00:00:00
FILE "11 Been on My Mind.flac" WAVE
TRACK 11 AUDIO
TITLE "Been on My Mind"
PERFORMER "R+R=Now feat. Amber Navran"
ISRC USUM71803979
FLAGS DCP
REM REPLAYGAIN_TRACK_GAIN -7.00 dB
REM REPLAYGAIN_TRACK_PEAK 0.979095
INDEX 01 00:00:00
Приватный:
Да (DHT отключён)
Размер:
431.21 Мб (452,159,945 байт) » файлов: 15
Участники:
0 раздают, 0 качают (0 участников всего)
Внешние участники:
2 раздают, 1 качают (3 участников всего) [ Обновить ]
Есть вопросы - пишите личное сообщение пользователю M0p94ok.
16:26
80
Нет комментариев. Ваш будет первым!