Вы используете незарегистрированную версию компонента "Вкладки"!

Поиск

(Contemporary Jazz) [CD] Antonio Sanchez & Migration - The Meridian Suite - 2015, FLAC (tracks+.cue), lossless

(Contemporary Jazz) [CD] Antonio Sanchez & Migration - The Meridian Suite - 2015, FLAC (tracks+.cue), lossless
Треклист:
Antonio Sanchez & Migration - The Meridian Suite Жанр: Contemporary Jazz
Носитель: CD
Год издания: 2015
Издатель (лейбл): CamJazz
Номер по каталогу: CAMJ 7890-2
Аудиокодек: FLAC (*.flac)
Тип рипа: tracks+.cue
Битрейт аудио: lossless
Продолжительность: 55:31
Rip by jlgt
Наличие сканов в содержимом раздачи: да
Треклист:
01. Grids and Patterns (11:26)
02. Imaginary Lines (10:30)
03. Channels of Energy (8:25)
04. Magnetic Currents (3:53)
05. Pathways of the Mind (21:17)
Personnel:
Antonio Sanchez - drums
Adam Rogers - acoustic and electric guitar
John Escreet - piano and Fender Rhodes
Matt Brewer - acoustic and electric bass
Thana Alexa - vocals
Seamus Blake - tenor saxophone and EWI
Rec.: Avatar Studios, NYC, NY, December 15-17, 2014.
 
 
Лог создания рипа
Exact Audio Copy V1.0 beta 3 from 29. August 2011
EAC extraction logfile from 17. January 2016, 12:32
Antonio Sanchez & Migration / The Meridian Suite
Used drive : PLEXTOR DVDR PX-891SA Adapter: 5 ID: 1
Read mode : Secure
Utilize accurate stream : Yes
Defeat audio cache : Yes
Make use of C2 pointers : No
Read offset correction : 6
Overread into Lead-In and Lead-Out : No
Fill up missing offset samples with silence : Yes
Delete leading and trailing silent blocks : No
Null samples used in CRC calculations : Yes
Used interface : Native Win32 interface for Win NT & 2000
Gap handling : Appended to previous track
Used output format : User Defined Encoder
Selected bitrate : 128 kBit/s
Quality : High
Add ID3 tag : No
Command line compressor : C:\Program Files (x86)\Exact Audio Copy\FLAC\FLAC.EXE
Additional command line options : -8 -V -T "ARTIST=%artist%" -T "TITLE=%title%" -T "ALBUM=%albumtitle%" -T "DATE=%year%" -T "TRACKNUMBER=%tracknr%" -T "TOTALTRACKS=%numtracks%" -T "GENRE=%genre%" -T "ALBUMARTIST=%albumartist%" -T "ALBUM ARTIST=%albumartist%" -T "COMMENT=EAC Secure Mode, Test & Copy, AccurateRip, FLAC -8" %source%
TOC of the extracted CD
Track | Start | Length | Start sector | End sector
---------------------------------------------------------
1 | 0:00.00 | 11:25.68 | 0 | 51442
2 | 11:25.68 | 10:30.15 | 51443 | 98707
3 | 21:56.08 | 8:25.03 | 98708 | 136585
4 | 30:21.11 | 3:53.30 | 136586 | 154090
5 | 34:14.41 | 21:16.64 | 154091 | 249854
Track 1
Filename L:\flac rips\01 - Grids and Patterns.wav
Pre-gap length 0:00:02.00
Peak level 100.0 %
Extraction speed 6.1 X
Track quality 99.9 %
Test CRC CD2DFD01
Copy CRC CD2DFD01
Accurately ripped (confidence 3) [FF6038AB] (AR v2)
Copy OK
Track 2
Filename L:\flac rips\02 - Imaginary Lines.wav
Peak level 100.0 %
Extraction speed 8.1 X
Track quality 100.0 %
Test CRC 6EE2D6D1
Copy CRC 6EE2D6D1
Accurately ripped (confidence 3) [9C37DA36] (AR v2)
Copy OK
Track 3
Filename L:\flac rips\03 - Channels of Energy.wav
Peak level 100.0 %
Extraction speed 9.0 X
Track quality 100.0 %
Test CRC 6A72F07F
Copy CRC 6A72F07F
Accurately ripped (confidence 3) [AD37C17C] (AR v2)
Copy OK
Track 4
Filename L:\flac rips\04 - Magnetic Currents.wav
Peak level 100.0 %
Extraction speed 7.3 X
Track quality 99.9 %
Test CRC 937815FF
Copy CRC 937815FF
Accurately ripped (confidence 3) [A1BFC250] (AR v2)
Copy OK
Track 5
Filename L:\flac rips\05 - Pathways of the Mind.wav
Peak level 100.0 %
Extraction speed 10.7 X
Track quality 99.9 %
Test CRC EEA0D0DB
Copy CRC EEA0D0DB
Accurately ripped (confidence 3) [C3601C73] (AR v2)
Copy OK
All tracks accurately ripped
No errors occurred
End of status report
==== Log checksum 9ADC50614347606D42EB530906B7F1673296322383238C75AA508CF1D5D29166 ====
 
Содержание индексной карты (.CUE)
REM GENRE Jazz
REM DATE 2015
REM DISCID 3F0D0305
REM COMMENT "ExactAudioCopy v1.0b3"
PERFORMER "Antonio Sanchez & Migration"
TITLE "The Meridian Suite"
FILE "01 - Grids and Patterns.wav" WAVE
TRACK 01 AUDIO
TITLE "Grids and Patterns"
PERFORMER "Antonio Sanchez & Migration"
INDEX 01 00:00:00
FILE "02 - Imaginary Lines.wav" WAVE
TRACK 02 AUDIO
TITLE "Imaginary Lines"
PERFORMER "Antonio Sanchez & Migration"
INDEX 01 00:00:00
FILE "03 - Channels of Energy.wav" WAVE
TRACK 03 AUDIO
TITLE "Channels of Energy"
PERFORMER "Antonio Sanchez & Migration"
INDEX 01 00:00:00
FILE "04 - Magnetic Currents.wav" WAVE
TRACK 04 AUDIO
TITLE "Magnetic Currents"
PERFORMER "Antonio Sanchez & Migration"
INDEX 01 00:00:00
FILE "05 - Pathways of the Mind.wav" WAVE
TRACK 05 AUDIO
TITLE "Pathways of the Mind"
PERFORMER "Antonio Sanchez & Migration"
INDEX 01 00:00:00
Any questions - support@pro-jazz.com. Есть вопросы - support@pro-jazz.com
07:05
240
Нет комментариев. Ваш будет первым!