Поиск

(Contemporary Jazz) [CD] Antonio Pinho Vargas - Solo II (2CD) - 2009, FLAC (tracks+.cue), lossless

(Contemporary Jazz) [CD] Antonio Pinho Vargas - Solo II (2CD) - 2009, FLAC (tracks+.cue), lossless
Треклист:
Antonio Pinho Vargas - Solo II
Жанр: Contemporary Jazz
Носитель: CD
Страна-производитель диска (релиза): Португалия
Год издания: 2009
Издатель (лейбл): EMI
Номер по каталогу: 5099923438224
Аудиокодек: FLAC (*.flac)
Тип рипа: tracks+.cue
Битрейт аудио: lossless
Продолжительность: 1:34:37
Источник (релизер): tochigui (what)
Наличие сканов в содержимом раздачи: нет
Antonio Pinho Vargas - piano
 
CD1 - Imperfeicoes 3 {47:20}
01. Twins' peak (Vargas) - 2:53
02. Que amor nao me engana I (Afonso) - 2:33
03. Veado ferido (Vargas) - 3:45
04. Olhos molhados (Vargas) - 6:39
05. Da floresta (Vargas) - 3:13
06. In between T & O (Vargas) - 8:14
07. Do teatro (Vargas) - 3:43
08. Aguas matinais da Holanda (Vargas) - 5:53
09. Gente estranha (Vargas) - 2:16
10. Posludio de Gente estranha (Vargas) - 1:31
11. O sentimento de um ocidental (Vargas) - 4:21
12. The times they are a-changing (Dylan) - 2:19
 
Лог создания рипа
Exact Audio Copy V1.1 from 23. June 2015
EAC extraction logfile from 22. December 2015, 14:29
António Pinho Vargas / Solo II
Used drive : ASUS DRW-24B5ST Adapter: 1 ID: 0
Read mode : Secure
Utilize accurate stream : Yes
Defeat audio cache : Yes
Make use of C2 pointers : No
Read offset correction : 6
Overread into Lead-In and Lead-Out : No
Fill up missing offset samples with silence : Yes
Delete leading and trailing silent blocks : No
Null samples used in CRC calculations : Yes
Used interface : Native Win32 interface for Win NT & 2000
Gap handling : Appended to previous track
Used output format : User Defined Encoder
Selected bitrate : 1024 kBit/s
Quality : High
Add ID3 tag : No
Command line compressor : C:\Program Files (x86)\Exact Audio Copy\Flac\flac.exe
Additional command line options : -8 -V -T "ARTIST=%artist%" -T "TITLE=%title%" -T "ALBUM=%albumtitle%" -T "DATE=%year%" -T "TRACKNUMBER=%tracknr%" -T "GENRE=%genre%" -T "PERFORMER=%albuminterpret%" -T "COMPOSER=%composer%" %haslyrics%--tag-from-file=LYRICS="%lyricsfile%"%haslyrics% -T "ALBUMARTIST=%albumartist%" -T "DISCNUMBER=%cdnumber%" -T "TOTALDISCS=%totalcds%" -T "TOTALTRACKS=%numtracks%" -T "COMMENT=%comment%" %source% -o %dest%
TOC of the extracted CD
Track | Start | Length | Start sector | End sector
---------------------------------------------------------
1 | 0:00.00 | 2:53.25 | 0 | 12999
2 | 2:53.25 | 2:32.62 | 13000 | 24461
3 | 5:26.12 | 3:44.53 | 24462 | 41314
4 | 9:10.65 | 6:38.69 | 41315 | 71233
5 | 15:49.59 | 3:12.65 | 71234 | 85698
6 | 19:02.49 | 8:13.41 | 85699 | 122714
7 | 27:16.15 | 3:43.12 | 122715 | 139451
8 | 30:59.27 | 5:53.07 | 139452 | 165933
9 | 36:52.34 | 2:16.20 | 165934 | 176153
10 | 39:08.54 | 1:31.37 | 176154 | 183015
11 | 40:40.16 | 4:21.29 | 183016 | 202619
12 | 45:01.45 | 2:19.01 | 202620 | 213045
Track 1
Filename E:\EAC\António Pinho Vargas - Solo II (2009) [FLAC]\Disc 1\01 - Twins' Peak.wav
Pre-gap length 0:00:02.00
Peak level 54.2 %
Extraction speed 1.8 X
Track quality 100.0 %
Test CRC F8894CF4
Copy CRC F8894CF4
Accurately ripped (confidence 2) [0D9CFF67] (AR v2)
Copy OK
Track 2
Filename E:\EAC\António Pinho Vargas - Solo II (2009) [FLAC]\Disc 1\02 - Que Amor Não Me Engana I.wav
Pre-gap length 0:00:03.00
Peak level 59.0 %
Extraction speed 1.9 X
Track quality 100.0 %
Test CRC 8E00F7B9
Copy CRC 8E00F7B9
Accurately ripped (confidence 2) [F0E0340D] (AR v2)
Copy OK
Track 3
Filename E:\EAC\António Pinho Vargas - Solo II (2009) [FLAC]\Disc 1\03 - Veado Ferido.wav
Pre-gap length 0:00:03.00
Peak level 48.8 %
Extraction speed 2.2 X
Track quality 100.0 %
Test CRC 75EB1ED8
Copy CRC 75EB1ED8
Accurately ripped (confidence 2) [39ADE55B] (AR v2)
Copy OK
Track 4
Filename E:\EAC\António Pinho Vargas - Solo II (2009) [FLAC]\Disc 1\04 - Olhos Molhados.wav
Pre-gap length 0:00:03.00
Peak level 86.9 %
Extraction speed 2.6 X
Track quality 100.0 %
Test CRC F3C07670
Copy CRC F3C07670
Accurately ripped (confidence 2) [8573AFF7] (AR v2)
Copy OK
Track 5
Filename E:\EAC\António Pinho Vargas - Solo II (2009) [FLAC]\Disc 1\05 - Da Floresta.wav
Pre-gap length 0:00:03.00
Peak level 68.2 %
Extraction speed 1.8 X
Track quality 99.9 %
Test CRC 5D255E33
Copy CRC 5D255E33
Accurately ripped (confidence 2) [4E6DCB87] (AR v2)
Copy OK
Track 6
Filename E:\EAC\António Pinho Vargas - Solo II (2009) [FLAC]\Disc 1\06 - In Between T&O.wav
Pre-gap length 0:00:04.00
Peak level 90.6 %
Extraction speed 3.0 X
Track quality 100.0 %
Test CRC F1A16CD7
Copy CRC F1A16CD7
Accurately ripped (confidence 2) [48E07DC9] (AR v2)
Copy OK
Track 7
Filename E:\EAC\António Pinho Vargas - Solo II (2009) [FLAC]\Disc 1\07 - Do Teatro.wav
Pre-gap length 0:00:03.00
Peak level 67.8 %
Extraction speed 3.0 X
Track quality 100.0 %
Test CRC 69299EAC
Copy CRC 69299EAC
Accurately ripped (confidence 2) [CD39D3D5] (AR v2)
Copy OK
Track 8
Filename E:\EAC\António Pinho Vargas - Solo II (2009) [FLAC]\Disc 1\08 - Águas Matinais da Holanda.wav
Pre-gap length 0:00:03.00
Peak level 72.3 %
Extraction speed 3.3 X
Track quality 100.0 %
Test CRC 7148EA20
Copy CRC 7148EA20
Accurately ripped (confidence 2) [73325DFD] (AR v2)
Copy OK
Track 9
Filename E:\EAC\António Pinho Vargas - Solo II (2009) [FLAC]\Disc 1\09 - Gente Estranha.wav
Pre-gap length 0:00:04.40
Peak level 54.6 %
Extraction speed 2.9 X
Track quality 100.0 %
Test CRC B2126ACC
Copy CRC B2126ACC
Accurately ripped (confidence 2) [C2C22FF4] (AR v2)
Copy OK
Track 10
Filename E:\EAC\António Pinho Vargas - Solo II (2009) [FLAC]\Disc 1\10 - Poslúdio de Gente Estranha.wav
Peak level 44.3 %
Extraction speed 2.7 X
Track quality 100.0 %
Test CRC 1CDFFA74
Copy CRC 1CDFFA74
Accurately ripped (confidence 2) [73809C23] (AR v2)
Copy OK
Track 11
Filename E:\EAC\António Pinho Vargas - Solo II (2009) [FLAC]\Disc 1\11 - O Sentimento de Um Ocidental.wav
Pre-gap length 0:00:02.00
Peak level 52.4 %
Extraction speed 3.4 X
Track quality 100.0 %
Test CRC B156FE76
Copy CRC B156FE76
Accurately ripped (confidence 2) [9E42476A] (AR v2)
Copy OK
Track 12
Filename E:\EAC\António Pinho Vargas - Solo II (2009) [FLAC]\Disc 1\12 - The Times They Are A-Changing.wav
Pre-gap length 0:00:04.40
Peak level 51.8 %
Extraction speed 3.2 X
Track quality 100.0 %
Test CRC CB35D467
Copy CRC CB35D467
Accurately ripped (confidence 2) [5FF09AFA] (AR v2)
Copy OK
All tracks accurately ripped
No errors occurred
End of status report
---- CUETools DB Plugin V2.1.6
[CTDB TOCID: I1vxDMst4eaeFmHriZUyW.FZvaw-] disk not present in database
Submit result: I1vxDMst4eaeFmHriZUyW.FZvaw- has been uploaded
==== Log checksum 3EAEE6E1716CB77D52E63F992F4016740F71D439D6AE140CB965391464DCCA27 ====
 
Содержание индексной карты (.CUE)
REM GENRE Jazz
REM DATE 2009
REM DISCID 8E0B180C
REM COMMENT "ExactAudioCopy v1.1"
PERFORMER "Antonio Pinho Vargas"
TITLE "Solo II CD1"
FILE "01 - Twins' peak.wav" WAVE
TRACK 01 AUDIO
TITLE "Twins' peak"
PERFORMER "Antonio Pinho Vargas"
INDEX 01 00:00:00
TRACK 02 AUDIO
TITLE "Que amor nao me engana I"
PERFORMER "Antonio Pinho Vargas"
INDEX 00 02:50:25
FILE "02 - Que amor nao me engana I.wav" WAVE
INDEX 01 00:00:00
TRACK 03 AUDIO
TITLE "Veado ferido"
PERFORMER "Antonio Pinho Vargas"
INDEX 00 02:29:62
FILE "03 - Veado ferido.wav" WAVE
INDEX 01 00:00:00
TRACK 04 AUDIO
TITLE "Olhos molhados"
PERFORMER "Antonio Pinho Vargas"
INDEX 00 03:41:53
FILE "04 - Olhos molhados.wav" WAVE
INDEX 01 00:00:00
TRACK 05 AUDIO
TITLE "Da floresta"
PERFORMER "Antonio Pinho Vargas"
INDEX 00 06:35:69
FILE "05 - Da floresta.wav" WAVE
INDEX 01 00:00:00
TRACK 06 AUDIO
TITLE "In between T & O"
PERFORMER "Antonio Pinho Vargas"
INDEX 00 03:08:65
FILE "06 - In between T & O.wav" WAVE
INDEX 01 00:00:00
TRACK 07 AUDIO
TITLE "Do teatro"
PERFORMER "Antonio Pinho Vargas"
INDEX 00 08:10:41
FILE "07 - Do teatro.wav" WAVE
INDEX 01 00:00:00
TRACK 08 AUDIO
TITLE "Aguas matinais da Holanda"
PERFORMER "Antonio Pinho Vargas"
INDEX 00 03:40:12
FILE "08 - Aguas matinais da Holanda.wav" WAVE
INDEX 01 00:00:00
TRACK 09 AUDIO
TITLE "Gente estranha"
PERFORMER "Antonio Pinho Vargas"
INDEX 00 05:48:52
FILE "09 - Gente estranha.wav" WAVE
INDEX 01 00:00:00
FILE "10 - Posludio de Gente estranha.wav" WAVE
TRACK 10 AUDIO
TITLE "Posludio de Gente estranha"
PERFORMER "Antonio Pinho Vargas"
INDEX 01 00:00:00
TRACK 11 AUDIO
TITLE "O sentimento de um ocidental"
PERFORMER "Antonio Pinho Vargas"
INDEX 00 01:29:37
FILE "11 - O sentimento de um ocidental.wav" WAVE
INDEX 01 00:00:00
TRACK 12 AUDIO
TITLE "The times they are a-changing"
PERFORMER "Antonio Pinho Vargas"
INDEX 00 04:16:74
FILE "12 - The times they are a-changing.wav" WAVE
INDEX 01 00:00:00
 
Отчет CUETools
[CUETools log; Date: 28.01.2016 1:14:27; Version: 2.1.5]
[CTDB TOCID: I1vxDMst4eaeFmHriZUyW.FZvaw-] found.
Track | CTDB Status
1 | (1/1) Accurately ripped
2 | (1/1) Accurately ripped
3 | (1/1) Accurately ripped
4 | (1/1) Accurately ripped
5 | (1/1) Accurately ripped
6 | (1/1) Accurately ripped
7 | (1/1) Accurately ripped
8 | (1/1) Accurately ripped
9 | (1/1) Accurately ripped
10 | (1/1) Accurately ripped
11 | (1/1) Accurately ripped
12 | (1/1) Accurately ripped
[AccurateRip ID: 0015f3b7-00cf3228-8e0b180c] found.
Track [ CRC | V2 ] Status
01 [7c9e60e9|0d9cff67] (2+2/4) Accurately ripped
02 [862aa502|f0e0340d] (2+2/4) Accurately ripped
03 [473491f2|39ade55b] (2+2/4) Accurately ripped
04 [e7502686|8573aff7] (2+2/4) Accurately ripped
05 [b4103f6d|4e6dcb87] (2+2/4) Accurately ripped
06 [91d157af|48e07dc9] (2+2/4) Accurately ripped
07 [5f33f5d1|cd39d3d5] (2+2/4) Accurately ripped
08 [d4dce80c|73325dfd] (2+2/4) Accurately ripped
09 [8a15d861|c2c22ff4] (2+2/4) Accurately ripped
10 [2b9bbd82|73809c23] (2+2/4) Accurately ripped
11 [8aa409b3|9e42476a] (2+2/4) Accurately ripped
12 [3e3e4821|5ff09afa] (2+2/4) Accurately ripped
Track Peak [ CRC32 ] [W/O NULL] [ LOG ]
-- 90,6 [81B4AD48] [E384867B]
01 54,2 [F8894CF4] [A06841DB] CRC32
02 59,0 [8E00F7B9] [6183D85C] CRC32
03 48,8 [75EB1ED8] [875FAC7B] CRC32
04 86,9 [F3C07670] [763C8365] CRC32
05 68,2 [5D255E33] [ACED8189] CRC32
06 90,6 [F1A16CD7] [5441BAB9] CRC32
07 67,8 [69299EAC] [861628CE] CRC32
08 72,2 [7148EA20] [BF349209] CRC32
09 54,6 [B2126ACC] [827D1448] CRC32
10 44,3 [1CDFFA74] [478D8281] CRC32
11 52,4 [B156FE76] [CAF16B0F] CRC32
12 51,8 [CB35D467] [8AF7A2C0] CRC32
 
CD2 - Imperfeicoes 4 {47:16}
01. Uma ja antiga (Vargas) - 2:57
02. Franz (Vargas) - 2:59
03. Posludio de Franz (Vargas) - 2:13
04. A incontornavel melancolia (Vargas) - 3:10
05. Jardim do passeio alegre (Vargas) - 3:53
06. Cantiga pra Maria (Vargas) - 4:18
07. Apesar de tudo a calma (Vargas) - 3:23
08. Thelonious skizo sketch (Vargas) - 5:46
09. Quatro mulheres (Vargas) - 3:45
10. Que amor nao me engana II (Afonso) - 4:25
11. Ornette (Vargas) - 0:50
12. Posludio de Ornette (Vargas) - 2:51
13. Da alma: Lento (Vargas) - 2:00
14. Da alma: Rapido (Vargas) - 4:46
 
Лог создания рипа
Exact Audio Copy V1.1 from 23. June 2015
EAC extraction logfile from 22. December 2015, 15:12
António Pinho Vargas / Solo II
Used drive : ASUS DRW-24B5ST Adapter: 1 ID: 0
Read mode : Secure
Utilize accurate stream : Yes
Defeat audio cache : Yes
Make use of C2 pointers : No
Read offset correction : 6
Overread into Lead-In and Lead-Out : No
Fill up missing offset samples with silence : Yes
Delete leading and trailing silent blocks : No
Null samples used in CRC calculations : Yes
Used interface : Native Win32 interface for Win NT & 2000
Gap handling : Appended to previous track
Used output format : User Defined Encoder
Selected bitrate : 1024 kBit/s
Quality : High
Add ID3 tag : No
Command line compressor : C:\Program Files (x86)\Exact Audio Copy\Flac\flac.exe
Additional command line options : -8 -V -T "ARTIST=%artist%" -T "TITLE=%title%" -T "ALBUM=%albumtitle%" -T "DATE=%year%" -T "TRACKNUMBER=%tracknr%" -T "GENRE=%genre%" -T "PERFORMER=%albuminterpret%" -T "COMPOSER=%composer%" %haslyrics%--tag-from-file=LYRICS="%lyricsfile%"%haslyrics% -T "ALBUMARTIST=%albumartist%" -T "DISCNUMBER=%cdnumber%" -T "TOTALDISCS=%totalcds%" -T "TOTALTRACKS=%numtracks%" -T "COMMENT=%comment%" %source% -o %dest%
TOC of the extracted CD
Track | Start | Length | Start sector | End sector
---------------------------------------------------------
1 | 0:00.00 | 2:57.19 | 0 | 13293
2 | 2:57.19 | 2:59.37 | 13294 | 26755
3 | 5:56.56 | 2:12.57 | 26756 | 36712
4 | 8:09.38 | 3:10.36 | 36713 | 50998
5 | 11:19.74 | 3:53.16 | 50999 | 68489
6 | 15:13.15 | 4:18.08 | 68490 | 87847
7 | 19:31.23 | 3:22.61 | 87848 | 103058
8 | 22:54.09 | 5:45.54 | 103059 | 128987
9 | 28:39.63 | 3:44.51 | 128988 | 145838
10 | 32:24.39 | 4:24.49 | 145839 | 165687
11 | 36:49.13 | 0:50.24 | 165688 | 169461
12 | 37:39.37 | 2:50.57 | 169462 | 182268
13 | 40:30.19 | 2:00.14 | 182269 | 191282
14 | 42:30.33 | 4:46.17 | 191283 | 212749
Track 1
Filename E:\EAC\António Pinho Vargas - Solo II (2009) [FLAC]\Disc 2\01 - Uma Já Antiga.wav
Pre-gap length 0:00:02.00
Peak level 63.1 %
Extraction speed 1.3 X
Track quality 99.9 %
Test CRC 2FAFE3A3
Copy CRC 2FAFE3A3
Accurately ripped (confidence 2) [D6A49196] (AR v2)
Copy OK
Track 2
Filename E:\EAC\António Pinho Vargas - Solo II (2009) [FLAC]\Disc 2\02 - Franz.wav
Pre-gap length 0:00:03.00
Peak level 51.4 %
Extraction speed 2.0 X
Track quality 100.0 %
Test CRC 4A8A1FA9
Copy CRC 4A8A1FA9
Accurately ripped (confidence 2) [0E348A22] (AR v2)
Copy OK
Track 3
Filename E:\EAC\António Pinho Vargas - Solo II (2009) [FLAC]\Disc 2\03 - Poslúdio de Franz.wav
Peak level 68.5 %
Extraction speed 2.0 X
Track quality 100.0 %
Test CRC 522EA375
Copy CRC 522EA375
Accurately ripped (confidence 2) [E52EC91C] (AR v2)
Copy OK
Track 4
Filename E:\EAC\António Pinho Vargas - Solo II (2009) [FLAC]\Disc 2\04 - A Incontornável Melancolia.wav
Pre-gap length 0:00:04.00
Peak level 67.2 %
Extraction speed 2.3 X
Track quality 100.0 %
Test CRC 44969102
Copy CRC 44969102
Accurately ripped (confidence 2) [A735543D] (AR v2)
Copy OK
Track 5
Filename E:\EAC\António Pinho Vargas - Solo II (2009) [FLAC]\Disc 2\05 - Jardim do Passeio Alegre.wav
Pre-gap length 0:00:03.00
Peak level 82.3 %
Extraction speed 2.5 X
Track quality 100.0 %
Test CRC 21E95732
Copy CRC 21E95732
Accurately ripped (confidence 2) [5CBBF630] (AR v2)
Copy OK
Track 6
Filename E:\EAC\António Pinho Vargas - Solo II (2009) [FLAC]\Disc 2\06 - Cantiga prá Maria.wav
Pre-gap length 0:00:04.00
Peak level 73.9 %
Extraction speed 2.7 X
Track quality 100.0 %
Test CRC 1C616979
Copy CRC 1C616979
Accurately ripped (confidence 2) [1D42CA24] (AR v2)
Copy OK
Track 7
Filename E:\EAC\António Pinho Vargas - Solo II (2009) [FLAC]\Disc 2\07 - Apesar de Tudo a Calma.wav
Pre-gap length 0:00:03.00
Peak level 70.8 %
Extraction speed 1.9 X
Track quality 99.9 %
Test CRC D424B791
Copy CRC D424B791
Accurately ripped (confidence 2) [867C3923] (AR v2)
Copy OK
Track 8
Filename E:\EAC\António Pinho Vargas - Solo II (2009) [FLAC]\Disc 2\08 - Thelonious Skizo Sketch.wav
Pre-gap length 0:00:03.00
Peak level 90.7 %
Extraction speed 3.0 X
Track quality 100.0 %
Test CRC 1DF3D5FB
Copy CRC 1DF3D5FB
Accurately ripped (confidence 2) [6BD8C0FC] (AR v2)
Copy OK
Track 9
Filename E:\EAC\António Pinho Vargas - Solo II (2009) [FLAC]\Disc 2\09 - Quatro Mulheres.wav
Pre-gap length 0:00:04.00
Peak level 64.5 %
Extraction speed 3.0 X
Track quality 100.0 %
Test CRC 1B8A2325
Copy CRC 1B8A2325
Accurately ripped (confidence 2) [C45C5B71] (AR v2)
Copy OK
Track 10
Filename E:\EAC\António Pinho Vargas - Solo II (2009) [FLAC]\Disc 2\10 - Que Amor Não Me Engana II.wav
Pre-gap length 0:00:01.00
Peak level 86.9 %
Extraction speed 3.2 X
Track quality 100.0 %
Test CRC BF21B5D4
Copy CRC BF21B5D4
Accurately ripped (confidence 2) [B6C875B4] (AR v2)
Copy OK
Track 11
Filename E:\EAC\António Pinho Vargas - Solo II (2009) [FLAC]\Disc 2\11 - Ornette.wav
Pre-gap length 0:00:04.40
Peak level 88.8 %
Extraction speed 2.1 X
Track quality 100.0 %
Test CRC 1624185D
Copy CRC 1624185D
Accurately ripped (confidence 2) [8EDBB5E7] (AR v2)
Copy OK
Track 12
Filename E:\EAC\António Pinho Vargas - Solo II (2009) [FLAC]\Disc 2\12 - Poslúdio de Ornette.wav
Peak level 70.8 %
Extraction speed 3.1 X
Track quality 100.0 %
Test CRC 1F361DA7
Copy CRC 1F361DA7
Accurately ripped (confidence 2) [DC522C79] (AR v2)
Copy OK
Track 13
Filename E:\EAC\António Pinho Vargas - Solo II (2009) [FLAC]\Disc 2\13 - Da Alma- Lento.wav
Pre-gap length 0:00:05.00
Peak level 72.8 %
Extraction speed 1.8 X
Track quality 99.9 %
Test CRC 8D9D06EC
Copy CRC 8D9D06EC
Accurately ripped (confidence 2) [15BCECCA] (AR v2)
Copy OK
Track 14
Filename E:\EAC\António Pinho Vargas - Solo II (2009) [FLAC]\Disc 2\14 - Da Alma- Rápido.wav
Peak level 73.6 %
Extraction speed 3.5 X
Track quality 100.0 %
Test CRC E02BA506
Copy CRC E02BA506
Accurately ripped (confidence 2) [CE0921CA] (AR v2)
Copy OK
All tracks accurately ripped
No errors occurred
End of status report
---- CUETools DB Plugin V2.1.6
[CTDB TOCID: L3k3VpuMYv8uS6TmqXDK8gINxSw-] disk not present in database
Submit result: L3k3VpuMYv8uS6TmqXDK8gINxSw- has been uploaded
==== Log checksum 6A5D143BC4F3AFD4EA0CFD9C184A0748F47461330CAA0D815C03CB725C982CA1 ====
 
Содержание индексной карты (.CUE)
REM GENRE Jazz
REM DATE 2009
REM DISCID B50B140E
REM COMMENT "ExactAudioCopy v1.1"
PERFORMER "Antonio Pinho Vargas"
TITLE "Solo II CD2"
FILE "01 - Uma ja antiga.wav" WAVE
TRACK 01 AUDIO
TITLE "Uma ja antiga"
PERFORMER "Antonio Pinho Vargas"
INDEX 01 00:00:00
TRACK 02 AUDIO
TITLE "Franz"
PERFORMER "Antonio Pinho Vargas"
INDEX 00 02:54:19
FILE "02 - Franz.wav" WAVE
INDEX 01 00:00:00
FILE "03 - Posludio de Franz.wav" WAVE
TRACK 03 AUDIO
TITLE "Posludio de Franz"
PERFORMER "Antonio Pinho Vargas"
INDEX 01 00:00:00
TRACK 04 AUDIO
TITLE "A incontornavel melancolia"
PERFORMER "Antonio Pinho Vargas"
INDEX 00 02:08:57
FILE "04 - A incontornavel melancolia.wav" WAVE
INDEX 01 00:00:00
TRACK 05 AUDIO
TITLE ""
PERFORMER "Antonio Pinho Vargas"
INDEX 00 03:07:36
FILE "05 - Jardim do passeio alegre.wav" WAVE
INDEX 01 00:00:00
TRACK 06 AUDIO
TITLE "Jardim do passeio alegre"
PERFORMER "Antonio Pinho Vargas"
INDEX 00 03:49:16
FILE "06 - Cantiga pra Maria.wav" WAVE
INDEX 01 00:00:00
TRACK 07 AUDIO
TITLE "Cantiga pra Maria"
PERFORMER "Antonio Pinho Vargas"
INDEX 00 04:15:08
FILE "07 - Apesar de tudo a calma.wav" WAVE
INDEX 01 00:00:00
TRACK 08 AUDIO
TITLE "Thelonious skizo sketch"
PERFORMER "Antonio Pinho Vargas"
INDEX 00 03:19:61
FILE "08 - Thelonious skizo sketch.wav" WAVE
INDEX 01 00:00:00
TRACK 09 AUDIO
TITLE "Quatro mulheres"
PERFORMER "Antonio Pinho Vargas"
INDEX 00 05:41:54
FILE "09 - Quatro mulheres.wav" WAVE
INDEX 01 00:00:00
TRACK 10 AUDIO
TITLE "Que amor nao me engana II"
PERFORMER "Antonio Pinho Vargas"
INDEX 00 03:43:51
FILE "10 - Que amor nao me engana II.wav" WAVE
INDEX 01 00:00:00
TRACK 11 AUDIO
TITLE "Ornette"
PERFORMER "Antonio Pinho Vargas"
INDEX 00 04:20:19
FILE "11 - Ornette.wav" WAVE
INDEX 01 00:00:00
FILE "12 - Posludio de Ornette.wav" WAVE
TRACK 12 AUDIO
TITLE "Posludio de Ornette"
PERFORMER "Antonio Pinho Vargas"
INDEX 01 00:00:00
TRACK 13 AUDIO
TITLE "Da alma: Lento"
PERFORMER "Antonio Pinho Vargas"
INDEX 00 02:45:57
FILE "13 - Da alma- Lento.wav" WAVE
INDEX 01 00:00:00
FILE "14 - Da alma- Rapido.wav" WAVE
TRACK 14 AUDIO
TITLE "Da alma: Rapido"
PERFORMER "Antonio Pinho Vargas"
INDEX 01 00:00:00
 
Отчет CUETools
[CUETools log; Date: 28.01.2016 1:14:43; Version: 2.1.5]
[CTDB TOCID: L3k3VpuMYv8uS6TmqXDK8gINxSw-] found.
Track | CTDB Status
1 | (1/1) Accurately ripped
2 | (1/1) Accurately ripped
3 | (1/1) Accurately ripped
4 | (1/1) Accurately ripped
5 | (1/1) Accurately ripped
6 | (1/1) Accurately ripped
7 | (1/1) Accurately ripped
8 | (1/1) Accurately ripped
9 | (1/1) Accurately ripped
10 | (1/1) Accurately ripped
11 | (1/1) Accurately ripped
12 | (1/1) Accurately ripped
13 | (1/1) Accurately ripped
14 | (1/1) Accurately ripped
[AccurateRip ID: 0018294e-01048403-b50b140e] found.
Track [ CRC | V2 ] Status
01 [967afafe|d6a49196] (2+2/4) Accurately ripped
02 [362145f0|0e348a22] (2+2/4) Accurately ripped
03 [085875eb|e52ec91c] (2+2/4) Accurately ripped
04 [2b248046|a735543d] (2+2/4) Accurately ripped
05 [6194fa49|5cbbf630] (2+2/4) Accurately ripped
06 [ecf5095f|1d42ca24] (2+2/4) Accurately ripped
07 [f14365fd|867c3923] (2+2/4) Accurately ripped
08 [443ccbc6|6bd8c0fc] (2+2/4) Accurately ripped
09 [702a9273|c45c5b71] (2+2/4) Accurately ripped
10 [440e7ce4|b6c875b4] (2+2/4) Accurately ripped
11 [c9b23869|8edbb5e7] (2+2/4) Accurately ripped
12 [1b39f8a9|dc522c79] (2+2/4) Accurately ripped
13 [a19d2119|15bcecca] (2+2/4) Accurately ripped
14 [a6566415|ce0921ca] (2+2/4) Accurately ripped
Track Peak [ CRC32 ] [W/O NULL] [ LOG ]
-- 90,7 [18E73175] [A483ADFA]
01 63,1 [2FAFE3A3] [A5BC92B4] CRC32
02 51,4 [4A8A1FA9] [04BBB3A1] CRC32
03 68,5 [522EA375] [D3ADAF7C] CRC32
04 67,2 [44969102] [F203E0FE] CRC32
05 82,3 [21E95732] [E705DB62] CRC32
06 73,9 [1C616979] [CD34A6F6] CRC32
07 70,8 [D424B791] [16D91DC2] CRC32
08 90,7 [1DF3D5FB] [BD9147A7] CRC32
09 64,5 [1B8A2325] [05E036D5] CRC32
10 86,9 [BF21B5D4] [48B85093] CRC32
11 88,8 [1624185D] [0B143E29] CRC32
12 70,8 [1F361DA7] [F25FE131] CRC32
13 72,8 [8D9D06EC] [663FC478] CRC32
14 73,6 [E02BA506] [F5FE917F] CRC32
 
Об альбоме (сборнике)
António Pinho Vargas é um histórico do Jazz nacional, uma personalidade singular com uma longa carreira de sucesso. Músico inspirado, dotado de um engenho melódico invulgar, APV percorreu um caminho que nunca se deixou aprisionar pelo mainstream. A longa investida em outros universos, entre a música erudita e a sociologia, que daria origem a uma tese de mestrado a par de peças do tipo operático ou sinfónico moderno, onde a música negra está de todo ausente, pode ter sido tomada como um desvio ou um abandono, mas de facto trata-se da necessidade de satisfação de um espírito inquieto, incapaz de se enclausurar em formas ou estilos.
O Solo e este Solo II, também denominados Imperfeições 1 a 4, têm a marca do editor, mas não desmerecem de existência enquanto ajuste de contas com o passado, ao mesmo tempo que curiosamente revelam em si mesmos uma coerência e consistência muito pessoais.
O CD duplo Solo II consta de uma série de 28 composições, algumas não mais que esboços, entre 1 a 8 minutos, onde apenas três – duas interpretações de Que Amor Não Me Engana de José Afonso e The Times They Are A-Changing de Bob Dylan - não são originais, e apenas uma outra – In Between T&O – deste milénio (2009), sendo as restantes de 1976 a 1999. Deambulações, exercícios, revisitações, como se quisesse acrescentar qualquer coisa que não foi dita nos velhos temas, novas perspectivas onde ainda assim apenas ocasionalmente se sente o novo adquirido (erudito), preferindo aquietar-se no olhar do passado. É um olhar muito clássico ainda assim, pouco «bop», melodioso (não no sentido de Bach como faz Mário Laginha; talvez antes folk) e sentido, onde por vezes assoma Keith Jarrett (Cantiga prá Maria ou Poslúdio de Franz), alternando com Ornette Coleman e genuínas canções (Uma Já Antiga) ou explorações mais abstractas em José Afonso.
Solo II é um disco de António Pinho Vargas, quer dizer, possui a sua marca indelével, e isso sente-se desde logo no primeiro tema. Não pertence ao passado nem ao futuro, mas possui um pouco dos dois: será mais um momento instável de onde o pianista olha uma última vez (com nostalgia) o passado. Assim seja.
20:29
245
Нет комментариев. Ваш будет первым!