Поиск

(Contemporary Jazz) [CD] Aaron Goldberg (with Reuben Rogers & Eric Harland) - The Now - 2014, FLAC (tracks+.cue), lossless

(Contemporary Jazz) [CD] Aaron Goldberg (with Reuben Rogers & Eric Harland) - The Now - 2014, FLAC (tracks+.cue), lossless
Треклист:
AARON GOLDBERG THE NOW Жанр: Contemporary Jazz, Post-Bop
Страна-производитель диска: USA
Год издания: 2014
Издатель (лейбл): Sunnyside Records
Номер по каталогу: SSC4022
Аудиокодек: FLAC (*.flac)
Тип рипа: tracks+.cue
Битрейт аудио: lossless
Продолжительность: 53:42
Источник (релизер): спасибо skasman
Наличие сканов в содержимом раздачи: нет
Треклист:
01 Trocando Em Miudos
02 Yoyo
03 The Wind In The Night
04 E-Land
05 Perhaps
06 Triste Baía Da Guanabara
07 Background Music
08 Francisca
09 One's A Crowd
10 One Life
 
Лог создания рипа
X Lossless Decoder version 20140504 (147.0)
XLD extraction logfile from 2014-11-17 12:06:17 +0100
Aaron Goldberg / The Now
Used drive : HL-DT-ST DVDRW  GS23N (revision SB07)
Media type : Pressed CD
Ripper mode             : XLD Secure Ripper
Disable audio cache     : OK for the drive with a cache less than 1375KiB
Make use of C2 pointers : NO
Read offset correction  : 667
Max retry count         : 100
Gap status              : Analyzed, Appended (except HTOA)
TOC of the extracted CD
     Track |   Start  |  Length  | Start sector | End sector
    ---------------------------------------------------------
        1  | 00:00:00 | 06:47:18 |         0    |    30542
        2  | 06:47:18 | 05:02:05 |     30543    |    53197
        3  | 11:49:23 | 05:02:48 |     53198    |    75895
        4  | 16:51:71 | 02:47:55 |     75896    |    88475
        5  | 19:39:51 | 05:17:33 |     88476    |   112283
        6  | 24:57:09 | 04:55:35 |    112284    |   134443
        7  | 29:52:44 | 02:48:57 |    134444    |   147100
        8  | 32:41:26 | 06:22:17 |    147101    |   175767
        9  | 39:03:43 | 06:16:27 |    175768    |   203994
       10  | 45:19:70 | 08:00:64 |    203995    |   240058
AccurateRip Summary
    Disc not found in AccurateRip DB.
All Tracks
    Album gain               : -2.61 dB
    Peak                     : 0.959900
    Statistics
        Read error                           : 0
        Jitter error (maybe fixed)           : 0
        Retry sector count                   : 0
        Damaged sector count                 : 0
Track 01
    Filename : /Users/jeangoizauskas/Documents/XLD/Aaron Goldberg - 2014 - The Now [FLAC]/01 Trocando Em Miudos.flac
    Pre-gap length : 00:02:00
    Track gain               : -2.50 dB
    Peak                     : 0.959808
    CRC32 hash (test run)    : DB2F56F0
    CRC32 hash               : DB2F56F0
    CRC32 hash (skip zero)   : 3E36E7DC
    AccurateRip v1 signature : 14A58881
    AccurateRip v2 signature : F2BE4CD2
        ->Track not present in AccurateRip database.
    Statistics
        Read error                           : 0
        Jitter error (maybe fixed)           : 0
        Retry sector count                   : 0
        Damaged sector count                 : 0
Track 02
    Filename : /Users/jeangoizauskas/Documents/XLD/Aaron Goldberg - 2014 - The Now [FLAC]/02 Yoyo.flac
    Track gain               : -2.31 dB
    Peak                     : 0.959900
    CRC32 hash (test run)    : F2D44677
    CRC32 hash               : F2D44677
    CRC32 hash (skip zero)   : 0CCA8E43
    AccurateRip v1 signature : 7246D35E
    AccurateRip v2 signature : B9145256
        ->Track not present in AccurateRip database.
    Statistics
        Read error                           : 0
        Jitter error (maybe fixed)           : 0
        Retry sector count                   : 0
        Damaged sector count                 : 0
Track 03
    Filename : /Users/jeangoizauskas/Documents/XLD/Aaron Goldberg - 2014 - The Now [FLAC]/03 The Wind In The Night.flac
    Track gain               : -0.78 dB
    Peak                     : 0.954590
    CRC32 hash (test run)    : 640B73A9
    CRC32 hash               : 640B73A9
    CRC32 hash (skip zero)   : AFEC668F
    AccurateRip v1 signature : 140F3F0C
    AccurateRip v2 signature : 4DCEF04A
        ->Track not present in AccurateRip database.
    Statistics
        Read error                           : 0
        Jitter error (maybe fixed)           : 0
        Retry sector count                   : 0
        Damaged sector count                 : 0
Track 04
    Filename : /Users/jeangoizauskas/Documents/XLD/Aaron Goldberg - 2014 - The Now [FLAC]/04 E-Land.flac
    Track gain               : -2.41 dB
    Peak                     : 0.957886
    CRC32 hash (test run)    : 12017EDB
    CRC32 hash               : 12017EDB
    CRC32 hash (skip zero)   : 1075ED8A
    AccurateRip v1 signature : EA4CEAE8
    AccurateRip v2 signature : CCD7C251
        ->Track not present in AccurateRip database.
    Statistics
        Read error                           : 0
        Jitter error (maybe fixed)           : 0
        Retry sector count                   : 0
        Damaged sector count                 : 0
Track 05
    Filename : /Users/jeangoizauskas/Documents/XLD/Aaron Goldberg - 2014 - The Now [FLAC]/05 Perhaps.flac
    Track gain               : -3.34 dB
    Peak                     : 0.955444
    CRC32 hash (test run)    : 5E7BEBFE
    CRC32 hash               : 5E7BEBFE
    CRC32 hash (skip zero)   : 1F17355F
    AccurateRip v1 signature : F890108E
    AccurateRip v2 signature : 1BAC9816
        ->Track not present in AccurateRip database.
    Statistics
        Read error                           : 0
        Jitter error (maybe fixed)           : 0
        Retry sector count                   : 0
        Damaged sector count                 : 0
Track 06
    Filename : /Users/jeangoizauskas/Documents/XLD/Aaron Goldberg - 2014 - The Now [FLAC]/06 Triste Baía Da Guanabara.flac
    Track gain               : 1.68 dB
    Peak                     : 0.835510
    CRC32 hash (test run)    : 145FBA5D
    CRC32 hash               : 145FBA5D
    CRC32 hash (skip zero)   : 2CE2B2F0
    AccurateRip v1 signature : A97273C2
    AccurateRip v2 signature : 5D4C719B
        ->Track not present in AccurateRip database.
    Statistics
        Read error                           : 0
        Jitter error (maybe fixed)           : 0
        Retry sector count                   : 0
        Damaged sector count                 : 0
Track 07
    Filename : /Users/jeangoizauskas/Documents/XLD/Aaron Goldberg - 2014 - The Now [FLAC]/07 Background Music.flac
    Track gain               : -3.93 dB
    Peak                     : 0.959442
    CRC32 hash (test run)    : BAECC4F2
    CRC32 hash               : BAECC4F2
    CRC32 hash (skip zero)   : B1FC1A27
    AccurateRip v1 signature : 619CD4D5
    AccurateRip v2 signature : F0DD348A
        ->Track not present in AccurateRip database.
    Statistics
        Read error                           : 0
        Jitter error (maybe fixed)           : 0
        Retry sector count                   : 0
        Damaged sector count                 : 0
Track 08
    Filename : /Users/jeangoizauskas/Documents/XLD/Aaron Goldberg - 2014 - The Now [FLAC]/08 Francisca.flac
    Track gain               : -1.01 dB
    Peak                     : 0.955902
    CRC32 hash (test run)    : 8F96F16B
    CRC32 hash               : 8F96F16B
    CRC32 hash (skip zero)   : 9FD2AAB2
    AccurateRip v1 signature : C5EA2793
    AccurateRip v2 signature : 634F4B51
        ->Track not present in AccurateRip database.
    Statistics
        Read error                           : 0
        Jitter error (maybe fixed)           : 0
        Retry sector count                   : 0
        Damaged sector count                 : 0
Track 09
    Filename : /Users/jeangoizauskas/Documents/XLD/Aaron Goldberg - 2014 - The Now [FLAC]/09 One's A Crowd.flac
    Track gain               : -3.11 dB
    Peak                     : 0.957153
    CRC32 hash (test run)    : C0FF2400
    CRC32 hash               : C0FF2400
    CRC32 hash (skip zero)   : 7873F698
    AccurateRip v1 signature : 6E79E500
    AccurateRip v2 signature : FC3CA7B0
        ->Track not present in AccurateRip database.
    Statistics
        Read error                           : 0
        Jitter error (maybe fixed)           : 0
        Retry sector count                   : 0
        Damaged sector count                 : 0
Track 10
    Filename : /Users/jeangoizauskas/Documents/XLD/Aaron Goldberg - 2014 - The Now [FLAC]/10 One Life.flac
    Track gain               : -2.99 dB
    Peak                     : 0.958160
    CRC32 hash (test run)    : 9201DF63
    CRC32 hash               : 9201DF63
    CRC32 hash (skip zero)   : 4B99D10E
    AccurateRip v1 signature : 4232DE9F
    AccurateRip v2 signature : D1D89A55
        ->Track not present in AccurateRip database.
    Statistics
        Read error                           : 0
        Jitter error (maybe fixed)           : 0
        Retry sector count                   : 0
        Damaged sector count                 : 0
No errors occurred
End of status report
-----BEGIN XLD SIGNATURE-----
bw6s10SWmIvwu8npo9SdDamJfSFlueQj2Oc1vqUIxR.wemIb__LwigrudxVty9qXTMmMroKPh_PSEvwceRqVlWzHMENh56WKDLDaXIy
-----END XLD SIGNATURE-----
 
 
Содержание индексной карты (.CUE)
TITLE "The Now"
PERFORMER "Aaron Goldberg"
REM GENRE "Jazz"
REM DATE "2014"
REM DISCNUMBER 1
REM TOTALDISCS 1
REM DISCID 810C800A
REM REPLAYGAIN_ALBUM_GAIN -2.61 dB
REM REPLAYGAIN_ALBUM_PEAK 0.959900
FILE "01 Trocando Em Miudos.flac" WAVE
  TRACK 01 AUDIO
    TITLE "Trocando Em Miudos"
    PERFORMER "Aaron Goldberg"
    ISRC US2W61440201
    REM REPLAYGAIN_TRACK_GAIN -2.50 dB
    REM REPLAYGAIN_TRACK_PEAK 0.959808
    INDEX 01 00:00:00
FILE "02 Yoyo.flac" WAVE
  TRACK 02 AUDIO
    TITLE "Yoyo"
    PERFORMER "Aaron Goldberg"
    ISRC US2W61440202
    REM REPLAYGAIN_TRACK_GAIN -2.31 dB
    REM REPLAYGAIN_TRACK_PEAK 0.959900
    INDEX 01 00:00:00
FILE "03 The Wind In The Night.flac" WAVE
  TRACK 03 AUDIO
    TITLE "The Wind In The Night"
    PERFORMER "Aaron Goldberg"
    ISRC US2W61440203
    REM REPLAYGAIN_TRACK_GAIN -0.78 dB
    REM REPLAYGAIN_TRACK_PEAK 0.954590
    INDEX 01 00:00:00
FILE "04 E-Land.flac" WAVE
  TRACK 04 AUDIO
    TITLE "E-Land"
    PERFORMER "Aaron Goldberg"
    ISRC US2W61440204
    REM REPLAYGAIN_TRACK_GAIN -2.41 dB
    REM REPLAYGAIN_TRACK_PEAK 0.957886
    INDEX 01 00:00:00
FILE "05 Perhaps.flac" WAVE
  TRACK 05 AUDIO
    TITLE "Perhaps"
    PERFORMER "Aaron Goldberg"
    ISRC US2W61440205
    REM REPLAYGAIN_TRACK_GAIN -3.34 dB
    REM REPLAYGAIN_TRACK_PEAK 0.955444
    INDEX 01 00:00:00
FILE "06 Triste Baía Da Guanabara.flac" WAVE
  TRACK 06 AUDIO
    TITLE "Triste Baía Da Guanabara"
    PERFORMER "Aaron Goldberg"
    ISRC US2W61440206
    REM REPLAYGAIN_TRACK_GAIN 1.68 dB
    REM REPLAYGAIN_TRACK_PEAK 0.835510
    INDEX 01 00:00:00
FILE "07 Background Music.flac" WAVE
  TRACK 07 AUDIO
    TITLE "Background Music"
    PERFORMER "Aaron Goldberg"
    ISRC US2W61440207
    REM REPLAYGAIN_TRACK_GAIN -3.93 dB
    REM REPLAYGAIN_TRACK_PEAK 0.959442
    INDEX 01 00:00:00
FILE "08 Francisca.flac" WAVE
  TRACK 08 AUDIO
    TITLE "Francisca"
    PERFORMER "Aaron Goldberg"
    ISRC US2W61440208
    REM REPLAYGAIN_TRACK_GAIN -1.01 dB
    REM REPLAYGAIN_TRACK_PEAK 0.955902
    INDEX 01 00:00:00
FILE "09 One's A Crowd.flac" WAVE
  TRACK 09 AUDIO
    TITLE "One's A Crowd"
    PERFORMER "Aaron Goldberg"
    ISRC US2W61440209
    REM REPLAYGAIN_TRACK_GAIN -3.11 dB
    REM REPLAYGAIN_TRACK_PEAK 0.957153
    INDEX 01 00:00:00
FILE "10 One Life.flac" WAVE
  TRACK 10 AUDIO
    TITLE "One Life"
    PERFORMER "Aaron Goldberg"
    ISRC US2W61440210
    REM REPLAYGAIN_TRACK_GAIN -2.99 dB
    REM REPLAYGAIN_TRACK_PEAK 0.958160
    INDEX 01 00:00:00
 
 
Об альбоме
Hailed by Down Beat magazine for his “quick-witted harmonic reflexes, fluid command of line and cut-to-the-chase sense of narrative logic,” Aaron Goldberg has made his name as one of jazz’s most compelling pianists, both as a band-leader and frequent collaborator with Joshua Redman, Wynton Marsalis, Kurt Rosenwinkel, Guillermo Klein and many more. On his new release The Now, Goldberg reunites with bassist Reuben Rogers and drummer Eric Harland, the virtuoso rhythm team going all the way back to his 1998 debut Turning Point. On their fifth outing together, the trio foregrounds a central truth about the art of playing jazz: that no two performances will be the same because the music is created, in Goldberg’s words, “in the dynamic plane of the present.”
“A jazz record is literally one moment in time,” Goldberg explains. “Each song captures those five minutes, and not more. This is especially counterintuitive when you think about iconic jazz recordings like Kind of Blue, where we can all sing every solo. That record would sound totally different, we’d all be singing different solos, if it’d been recorded five minutes later or even five seconds later. That aspect of jazz is what makes it magical for me. I think every time you make an album you contribute to this illusion that jazz operates like other forms of music, where you figure out the song, you practice it, you play it a million times, then you record the definitive version. Jazz doesn’t work like that, and I felt it was time to explicitly wrestle with this in some thematic way.”
In every idiomatic zone from Brazilian ballads to roaring bebop, Goldberg and the trio have a way of spontaneously sculpting every bar as it flows by, like a wave on a river. That Rogers and Harland have also spent the last few years working with master saxophonist Charles Lloyd has deepened their communication and subtlety beyond measure. With Goldberg, they revel in the lesser-explored corners of jazz repertoire, bringing wit, explosive chops and also keen understatement to bear on the music at hand.
“I met Reuben back in 1992 in Boston, when he was going to Berklee and I was going to Harvard,” Goldberg recalls. “He had just started playing upright bass. Eric I met in 1997, playing with [saxophonist] Greg Tardy. I felt an instant connection with them. There was never a feeling of having to tell them what I want or even what I want the trio to sound like. It was intuitive in the way that friendships are, or romantic relationships. It feels right and you find yourself growing, discovering things, getting somewhere new that you wouldn’t have gotten to alone. When you feel that connection, it opens a path to your subconscious — you can escape your preconceptions, the need for an agenda, and you can just let the music be.”
Goldberg became a jazz devotee in Boston during high school. After spending a year in New York City at the New School for Jazz and Contemporary Music, he enrolled at Harvard College and graduated magna cum laude in 1996 with a concentration in Mind, Brain and Behavior. A founding member of Betty Carter’s famed and indispensable Jazz Ahead program, he continued his ascent performing in bands led by Al Foster, Freddie HuOn Chico Buarque’s “Trocando em Miúdos” (roughly, “settling the small things” in Brazilian Portuguese), Goldberg and his partners reveal the sense of inner dynamism and flux that perfectly embodies the concept of The Now. “It’s a song about a couple that has broken up and they have to divide up all their common belongings,” the pianist says. “I heard it at a point when I was ending a long relationship and dealing with many of the same emotions, so I had a kind of total body experience of the song. It was a song I needed to play. In the studio was the second time we ever tried it, so it was being worked out in the moment and it has that explorative quality.”bbard, Nicholas Payton, Stefon Harris and Mark Turner among others. By the late 1990s, he was garnering wider attention, and an incessant touring schedule found him both inspired by music from around the world yet appreciative of the zen creativity that only jazz demands.
On Chico Buarque’s “Trocando em Miúdos” (roughly, “settling the small things” in Brazilian Portuguese), Goldberg and his partners reveal the sense of inner dynamism and flux that perfectly embodies the concept of The Now. “It’s a song about a couple that has broken up and they have to divide up all their common belongings,” the pianist says. “I heard it at a point when I was ending a long relationship and dealing with many of the same emotions, so I had a kind of total body experience of the song. It was a song I needed to play. In the studio was the second time we ever tried it, so it was being worked out in the moment and it has that explorative quality.”
Extending the Brazilian theme, Goldberg interprets Djavan’s “Triste Baía da Guanabara” and Toninho Horta’s “Francisca” with great lyrical and virtuosic flair. “There’s a deep Brazilian songwriting tradition, every bit as deep as our American songwriting tradition,” Goldberg says. “In the same way that our Tin Pan Alley composers were thinking equally about melody, harmony and lyrics, these Brazilian composers were also synthesizing melody, harmony, lyrics — and their best songs are pristine in all respects simultaneously.”
“Yo Yo” is a traditional Haitian song with lyrics “about a guy who’s a seller in the market,” Goldberg says. “The idea is that he always gives you more meat or more vegetables than you ask for. Everybody loves him — the women in particular love Yo Yo because he always gives them more than they bargain for. It’s a great tune for improvising, oddly related to some more familiar standards like ‘Autumn Leaves.’ Rhythmically it’s open to many approaches even though there’s something deeply African in the groove. Reuben is from St. Thomas and has a very intuitive concept of a range of Caribbean music.”
Goldberg’s lyrical waltz “The Wind In the Night” is “basically a love song, where the male character is the Wind and the female character is the Night.” The subject of “E-Land,” meanwhile, is Eric Harland himself. Goldberg offers “a sort of introduction to the world of Eric, or at least one of his realms. I wanted to design an environment for him to unleash the ‘drummer’ side of himself. The piece has a few different sections, we move between them, and essentially he’s at liberty to do whatever he wants.”
Goldberg’s bread-and-butter jazz vocabulary, his mastery and sense of invention on blues and standards, is second to none. On The Now, he lends Charlie Parker’s “Perhaps” a twist: the melody is played one quarter note apart in the right and left hand. Warne Marsh’s “Background Music,” on the changes of “All of Me,” is jaw-dropping in its speed, precision and unrelenting swing: the trio at full blast. “One’s a Crowd,” in another twist, uses the chord changes to Joe Henderson’s “Serenity.” “On Worlds (2006), we recorded a tune called ‘Unstablemates,’ and this is a similarly respectful de-rangement,” says Goldberg. “‘Serenity’ has a 14-bar form, while ‘One’s a Crowd’ drops a bar to 13, which alone renders it less serene. Melodically and improvisationally it aims to capture that mood when you’re alone but your inner voice won’t stay quiet.”
“One Life,” the closing track, brings Goldberg’s friend and sometime employer Kurt Rosenwinkel on board as a guest. The eerily peaceful, almost whistling sound of Rosenwinkel’s guitar has even more impact when one learns that Goldberg wrote “One Life” at the request of a married couple who had lost their teenage daughter. “It’s impossible to capture a life in music and I’d never met their daughter in person,” he says. “But their loss moved me, and I was moved that they asked. It took a long time just to sit at the piano and believe I could write something worthy of this one Life. We learned the song and then right before we recorded it, I told Kurt [about the dedication]. I watched him process this for a few minutes, he closed his eyes and sat with it. He didn’t even know the people involved, but he internalized the purpose and urgency. It’s hard to channel your emotions to that degree of depth in the studio, and Kurt was magnificent.”
Jazz has a way of summoning that kind of spirit from musicians, and Goldberg knows exactly how to capture it, surrounding himself with kindred spirits in pursuit of the highest expression. He and the trio embody the best of what jazz can be today: the ability to speak from deep within the tradition while putting their own collaborative imprint upon it. Combined with his personal take on jazz’s intangible and viscerally uplifting heritage, this makes Goldberg just the player to share all he knows about The Now.
 
 
Состав

Aaron Goldberg - piano
Reuben Rogers - bass
Eric Harland - drums
& Kurt Rosenwinkel - guitar (10)
Привет из будущего: этого альбома еще даже нет на сайте Sunnyside Rec., т.к. он должен выйти в США в январе 2015-го. А на рутрекере премьера - сегодня!
По всем вопросам пишите личное сообщение пользователю M0p94ok.
12:31
436
Нет комментариев. Ваш будет первым!