Поиск

(Contemporary Jazz,Brit-Jazz) Harry Miller's Isipingo - Which Way Now (Cuneiform Records) - 2006, APE (tracks+.cue)

Треклист:
Harry Miller's Isipingo - Which Way Now (Cuneiform Records)
Жанр: Contemporary Jazz,Brit-Jazz
Год выпуска диска: 2006
Аудио кодек: APE
Тип рипа: tracks+.cue
Продолжительность: 75m
Треклист:
1 Family Affair 19:04
2 Children At Play 20:37
3 Eli's Song 20:49
4 Which Way Now 14:43
Personnel: Nick Evans: trombone; Mongezi Feza: trumpet; Harry Miller: bass; Louis Moholo-Moholo: drums; Mike Osborne: alto sax; Keith Tippett: piano
Recorded at Post-Aula, Bremen, Germany on November 20, 1975
Доп. информация: собственный рип
 
отчёт
Exact Audio Copy V0.99 prebeta 5 from 4. May 2009
Отчёт EAC об извлечении, выполненном 28. августа 2010, 21:23
Isipingo / Which Way Now
Дисковод: SlimtypeeSAU108 2 Adapter: 3 ID: 0
Режим чтения : Достоверность
Использование точного потока : Да
Отключение кэша аудио : Да
Использование указателей C2 : Нет
Коррекция смещения при чтении : 6
Способность читать области Lead-in и Lead-out : Нет
Заполнение пропущенных сэмплов тишиной : Да
Удаление блоков с тишиной в начале и конце : Нет
При вычислениях CRC использовались нулевые сэмплы : Да
Интерфейс : Встроенный Win32-интерфейс для Win NT/2000
Обработка зазоров : Добавлено к предыдущему треку
Выходной формат : Monkey's Audio Lossless Encoder v3.99 DLL
Формат сэмплов : Normal Lossless Compression
TOC извлечённого CD
Трек | Старт | Длительность | Начальный сектор | Конечный сектор
---------------------------------------------------------------------
1 | 0:00.00 | 19:03.43 | 0 | 85767
2 | 19:03.43 | 20:37.01 | 85768 | 178543
3 | 39:40.44 | 20:48.41 | 178544 | 272184
4 | 60:29.10 | 14:42.45 | 272185 | 338379
Трек 1
Имя файла C:\eac\01 - Family Affair.ape
Длина предзазора 0:00:02.00
Пиковый уровень 97.9 %
Качество трека 100.0 %
CRC копии 993E5165
Точное извлечение (достоверность 1) [C04306A6]
Копирование... OK
Трек 2
Имя файла C:\eac\02 - Children at Play.ape
Пиковый уровень 94.5 %
Качество трека 100.0 %
CRC копии 16A11B16
Точное извлечение (достоверность 1) [DC6DEA52]
Копирование... OK
Трек 3
Имя файла C:\eac\03 - Eli's Song.ape
Пиковый уровень 100.0 %
Качество трека 99.9 %
CRC копии 03720BEC
Точное извлечение (достоверность 1) [0CDF012C]
Копирование... OK
Трек 4
Имя файла C:\eac\04 - Which Way Now.ape
Пиковый уровень 100.0 %
Качество трека 99.9 %
CRC копии 5DD50435
Точное извлечение (достоверность 1) [DA8158A8]
Копирование... OK
Все треки извлечены точно
Ошибок не произошло
Конец отчёта
 
cue
REM GENRE Jazz
REM DATE 2006
REM DISCID 29119F04
REM COMMENT "ExactAudioCopy v0.99pb5"
PERFORMER "Isipingo"
TITLE "Which Way Now"
FILE "01 - Family Affair.wav" WAVE
TRACK 01 AUDIO
TITLE "Family Affair"
PERFORMER "Isipingo"
INDEX 01 00:00:00
FILE "02 - Children at Play.wav" WAVE
TRACK 02 AUDIO
TITLE "Children at Play"
PERFORMER "Isipingo"
INDEX 01 00:00:00
FILE "03 - Eli's Song.wav" WAVE
TRACK 03 AUDIO
TITLE "Eli's Song"
PERFORMER "Isipingo"
INDEX 01 00:00:00
FILE "04 - Which Way Now.wav" WAVE
TRACK 04 AUDIO
TITLE "Which Way Now"
PERFORMER "Isipingo"
INDEX 01 00:00:00
17:34
271
Нет комментариев. Ваш будет первым!