Вы используете незарегистрированную версию компонента "Вкладки"!

Поиск

(Contemporary Jazz) Billy Bang - Vietnam (The Aftermath), Justin Time - 2001, FLAC (tracks+.cue), lossless

Треклист:
Billy Bang, Vietnam (The Aftermath), Justin Time 2001
Жанр: Contemporary Jazz
Год выпуска диска: 2001
Производитель диска: Justin Time (USA)
Аудио кодек: FLAC
Тип рипа: tracks+.cue (Full scan)
Битрейт аудио: lossless
Продолжительность: 1:11:21
Источник: собственный рип
Треклист:
[01] Yo! Ho Chi Minh is in the House
[02] Moments for the KIAMIA
[03] Tunnel Rat (Flashlight and a 45)
[04] TET Offensive
[05] Bien Hoa Blues
[06] Mystery of the Mekong
[07] Fire in the Hole
[08] Saigon Phunk
Billy Bang - violin (all tracks)
Ted Daniels - trumpet (tracks 1,3,4,5,8)
Frank Lowe - tenor sax (tracks 4,5,8)
Sonny Fortune - flute (tracks 7, 8)
John Hicks - piano (all tracks)
Curtis Lundy - bass (all tracks)
Ron Brown - percussion (tracks 4,6,8)
Michael Carvin - drums (all tracks)
Butch Morris - conductor (track 4)
 
EAC Log
Exact Audio Copy V0.99 prebeta 5 from 4. May 2009
EAC extraction logfile from 4. September 2010, 1:50
Bang, Billy / Vietnam the aftermath
Used drive : HL-DT-STDVD-RAM GSA-H55N Adapter: 0 ID: 0
Read mode : Secure
Utilize accurate stream : Yes
Defeat audio cache : Yes
Make use of C2 pointers : No
Read offset correction : 102
Overread into Lead-In and Lead-Out : No
Fill up missing offset samples with silence : Yes
Delete leading and trailing silent blocks : No
Null samples used in CRC calculations : Yes
Used interface : Native Win32 interface for Win NT & 2000
Gap handling : Appended to previous track
Used output format : User Defined Encoder
Selected bitrate : 768 kBit/s
Quality : High
Add ID3 tag : No
Command line compressor : G:\Program Files\Exact Audio Copy\FLAC\FLAC.EXE
Additional command line options : -6 -V -T "ARTIST=%a" -T "TITLE=%t" -T "ALBUM=%g" -T "DATE=%y" -T "TRACKNUMBER=%n" -T "GENRE=%m" -T "COMMENT=%e" %s -o %d
TOC of the extracted CD
Track | Start | Length | Start sector | End sector
---------------------------------------------------------
1 | 0:00.00 | 10:25.25 | 0 | 46899
2 | 10:25.25 | 6:39.12 | 46900 | 76836
3 | 17:04.37 | 9:32.23 | 76837 | 119759
4 | 26:36.60 | 8:57.30 | 119760 | 160064
5 | 35:34.15 | 6:42.17 | 160065 | 190231
6 | 42:16.32 | 10:01.68 | 190232 | 235374
7 | 52:18.25 | 7:03.10 | 235375 | 267109
8 | 59:21.35 | 11:59.72 | 267110 | 321106
Track 1
Filename G:\Downloads\Nowy folder\Billy Bang - Vietnam (The Aftermath)\01. Yo! Ho Chi Minh is in the House.wav
Pre-gap length 0:00:02.00
Peak level 100.0 %
Track quality 99.9 %
Test CRC 77BDFC9D
Copy CRC 77BDFC9D
Accurately ripped (confidence 6) [A3E371DE]
Copy OK
Track 2
Filename G:\Downloads\Nowy folder\Billy Bang - Vietnam (The Aftermath)\02. Moments for the KIAMIA.wav
Pre-gap length 0:00:02.30
Peak level 100.0 %
Track quality 100.0 %
Test CRC A397E88B
Copy CRC A397E88B
Accurately ripped (confidence 6) [F9C777DC]
Copy OK
Track 3
Filename G:\Downloads\Nowy folder\Billy Bang - Vietnam (The Aftermath)\03. Tunnel Rat (Flashlight and a 45).wav
Pre-gap length 0:00:01.56
Peak level 100.0 %
Track quality 100.0 %
Test CRC 54EBE6E2
Copy CRC 54EBE6E2
Accurately ripped (confidence 6) [A7110A02]
Copy OK
Track 4
Filename G:\Downloads\Nowy folder\Billy Bang - Vietnam (The Aftermath)\04. TET Offensive.wav
Pre-gap length 0:00:01.64
Peak level 100.0 %
Track quality 100.0 %
Test CRC 82C0A97A
Copy CRC 82C0A97A
Accurately ripped (confidence 6) [11104C66]
Copy OK
Track 5
Filename G:\Downloads\Nowy folder\Billy Bang - Vietnam (The Aftermath)\05. Bien Hoa Blues.wav
Pre-gap length 0:00:01.53
Peak level 100.0 %
Track quality 100.0 %
Test CRC 700884CD
Copy CRC 700884CD
Accurately ripped (confidence 6) [4A08ADD2]
Copy OK
Track 6
Filename G:\Downloads\Nowy folder\Billy Bang - Vietnam (The Aftermath)\06. Mystery of the Mekong.wav
Pre-gap length 0:00:01.80
Peak level 100.0 %
Track quality 100.0 %
Test CRC 22D6FCBF
Copy CRC 22D6FCBF
Accurately ripped (confidence 7) [69EED8C3]
Copy OK
Track 7
Filename G:\Downloads\Nowy folder\Billy Bang - Vietnam (The Aftermath)\07. Fire in the Hole.wav
Pre-gap length 0:00:02.00
Peak level 100.0 %
Track quality 100.0 %
Test CRC 334A3654
Copy CRC 334A3654
Accurately ripped (confidence 6) [FB8F4DE1]
Copy OK
Track 8
Filename G:\Downloads\Nowy folder\Billy Bang - Vietnam (The Aftermath)\08. Saigon Phunk.wav
Pre-gap length 0:00:01.93
Peak level 100.0 %
Track quality 100.0 %
Test CRC 143560E6
Copy CRC 143560E6
Accurately ripped (confidence 5) [FA29E9E1]
Copy OK
All tracks accurately ripped
No errors occurred
End of status report
 
Cue
REM GENRE Jazz
REM DATE 2001
REM DISCID 6810B908
REM COMMENT "ExactAudioCopy v0.99pb5"
PERFORMER "Bang, Billy"
TITLE "Vietnam the aftermath"
FILE "01. Yo! Ho Chi Minh is in the House.wav" WAVE
TRACK 01 AUDIO
TITLE "Yo! Ho Chi Minh is in the House"
PERFORMER "Bang, Billy"
INDEX 01 00:00:00
TRACK 02 AUDIO
TITLE "Moments for the KIAMIA"
PERFORMER "Bang, Billy"
INDEX 00 10:23:02
FILE "02. Moments for the KIAMIA.wav" WAVE
INDEX 01 00:00:00
TRACK 03 AUDIO
TITLE "Tunnel Rat (Flashlight and a 45)"
PERFORMER "Bang, Billy"
INDEX 00 06:37:45
FILE "03. Tunnel Rat (Flashlight and a 45).wav" WAVE
INDEX 01 00:00:00
TRACK 04 AUDIO
TITLE "TET Offensive"
PERFORMER "Bang, Billy"
INDEX 00 09:30:50
FILE "04. TET Offensive.wav" WAVE
INDEX 01 00:00:00
TRACK 05 AUDIO
TITLE "Bien Hoa Blues"
PERFORMER "Bang, Billy"
INDEX 00 08:55:65
FILE "05. Bien Hoa Blues.wav" WAVE
INDEX 01 00:00:00
TRACK 06 AUDIO
TITLE "Mystery of the Mekong"
PERFORMER "Bang, Billy"
INDEX 00 06:40:32
FILE "06. Mystery of the Mekong.wav" WAVE
INDEX 01 00:00:00
TRACK 07 AUDIO
TITLE "Fire in the Hole"
PERFORMER "Bang, Billy"
INDEX 00 09:59:68
FILE "07. Fire in the Hole.wav" WAVE
INDEX 01 00:00:00
TRACK 08 AUDIO
TITLE "Saigon Phunk"
PERFORMER "Bang, Billy"
INDEX 00 07:01:15
FILE "08. Saigon Phunk.wav" WAVE
INDEX 01 00:00:00
По всем вопросам пишите личное сообщение пользователю M0p94ok.
03:07
163
Нет комментариев. Ваш будет первым!