Вы используете незарегистрированную версию компонента "Вкладки"!

Поиск

(Contemporary Jazz, Bee Jazz Records) Jean-Marie Machado & Danzas - Fiesta nocturna - 2010, FLAC (tracks+.cue), lossless

(Contemporary Jazz, Bee Jazz Records) Jean-Marie Machado & Danzas - Fiesta nocturna - 2010, FLAC (tracks+.cue), lossless
Треклист:
Jean-Marie Machado & Danzas / Fiesta nocturna
Жанр: Contemporary Jazz, Bee Jazz Records
Страна-производитель диска: France
Год издания: 2010
Издатель (лейбл): Bee Jazz Records
Номер по каталогу: BEE 045
Аудиокодек: FLAC (*.flac)
Тип рипа: tracks+.cue
Битрейт аудио: lossless
Продолжительность: 1:04:43
Источник (релизер): Max Monteiro
Наличие сканов в содержимом раздачи: нет
Треклист:
1. Tangrock 8:48
2. Cantamarruecos 7:42
3. Sarabande 8:44
4. Reel’n Roll 9:06
5. Paso oscuro 6:55
6. Preludium 5:06
7. Pizziche tarantate 6:57
8. Little Dog Waltz 3:37
9. Chinese Reggae 7:47
All music composed and arranged by Jean-Marie Machado.
Recorded at Studio La Fonderie in July 2010.
Jean-Marie Machado – Piano
Didier Ithursarry – Accordion
Jean-Charles Richard – Saxophones
Claus Stötter – Trumpet
Gueorgui Kornazov – Trombone
Joce Mienniel – Flute
François Thuillier – Tuba
Henning Sieverts – Double Bass
François Merville – Drums (tracks 2, 4, 6 & 7)
Nicolas Larmignat – Drums (tracks 1, 2, 3 & 9)
 
Лог создания рипа
Exact Audio Copy V1.0 beta 3 from 29. August 2011
EAC extraction logfile from 13. September 2013, 13:56
Jean-Marie Machado & Danzas / Fiesta nocturna
Used drive : SlimtypeeNAU508 5 Adapter: 1 ID: 0
Read mode : Secure
Utilize accurate stream : Yes
Defeat audio cache : Yes
Make use of C2 pointers : No
Read offset correction : 6
Overread into Lead-In and Lead-Out : No
Fill up missing offset samples with silence : Yes
Delete leading and trailing silent blocks : No
Null samples used in CRC calculations : Yes
Used interface : Native Win32 interface for Win NT & 2000
Gap handling : Appended to previous track
Used output format : User Defined Encoder
Selected bitrate : 768 kBit/s
Quality : High
Add ID3 tag : No
Command line compressor : C:\Program Files (x86)\Exact Audio Copy\Flac\flac.exe
Additional command line options : -8 -V -T "ARTIST=%artist%" -T "TITLE=%title%" -T "ALBUM=%albumtitle%" -T "DATE=%year%" -T "TRACKNUMBER=%tracknr%" -T "GENRE=%genre%" -T "PERFORMER=%albuminterpret%" -T "COMPOSER=%composer%" %haslyrics%--tag-from-file=LYRICS="%lyricsfile%"%haslyrics% -T "ALBUMARTIST=%albumartist%" -T "DISCNUMBER=%cdnumber%" -T "TOTALDISCS=%totalcds%" -T "TOTALTRACKS=%numtracks%" -T "COMMENT=%comment%" %source% -o %dest%
TOC of the extracted CD
Track | Start | Length | Start sector | End sector
---------------------------------------------------------
1 | 0:00.00 | 8:47.64 | 0 | 39588
2 | 8:47.64 | 7:42.30 | 39589 | 74268
3 | 16:30.19 | 8:43.72 | 74269 | 113565
4 | 25:14.16 | 9:05.65 | 113566 | 154505
5 | 34:20.06 | 6:55.27 | 154506 | 185657
6 | 41:15.33 | 5:05.47 | 185658 | 208579
7 | 46:21.05 | 6:57.33 | 208580 | 239887
8 | 53:18.38 | 3:37.23 | 239888 | 256185
9 | 56:55.61 | 7:47.25 | 256186 | 291235
Track 1
Filename C:\EAC rips\01 - Tangrock.wav
Pre-gap length 0:00:02.00
Peak level 98.0 %
Extraction speed 2.5 X
Track quality 99.9 %
Test CRC 6957BC48
Copy CRC 6957BC48
Track not present in AccurateRip database
Copy OK
Track 2
Filename C:\EAC rips\02 - Cantamarruecos.wav
Peak level 98.0 %
Extraction speed 3.1 X
Track quality 100.0 %
Test CRC 378A355E
Copy CRC 378A355E
Track not present in AccurateRip database
Copy OK
Track 3
Filename C:\EAC rips\03 - Sarabande.wav
Peak level 98.0 %
Extraction speed 3.5 X
Track quality 100.0 %
Test CRC CCD452B9
Copy CRC CCD452B9
Track not present in AccurateRip database
Copy OK
Track 4
Filename C:\EAC rips\04 - Reel'n Roll.wav
Peak level 98.0 %
Extraction speed 3.9 X
Track quality 100.0 %
Test CRC EA9D1032
Copy CRC EA9D1032
Track not present in AccurateRip database
Copy OK
Track 5
Filename C:\EAC rips\05 - Paso oscuro.wav
Peak level 97.9 %
Extraction speed 4.1 X
Track quality 100.0 %
Test CRC 3C5698D3
Copy CRC 3C5698D3
Track not present in AccurateRip database
Copy OK
Track 6
Filename C:\EAC rips\06 - Preludium.wav
Peak level 97.9 %
Extraction speed 4.2 X
Track quality 100.0 %
Test CRC EC6A75F1
Copy CRC EC6A75F1
Track not present in AccurateRip database
Copy OK
Track 7
Filename C:\EAC rips\07 - Pizziche tarantate.wav
Peak level 98.0 %
Extraction speed 4.6 X
Track quality 100.0 %
Test CRC E02E17C1
Copy CRC E02E17C1
Track not present in AccurateRip database
Copy OK
Track 8
Filename C:\EAC rips\08 - Little Dog Waltz.wav
Peak level 56.2 %
Extraction speed 4.4 X
Track quality 100.0 %
Test CRC F33C0340
Copy CRC F33C0340
Track not present in AccurateRip database
Copy OK
Track 9
Filename C:\EAC rips\09 - Chinese Reggae.wav
Peak level 98.1 %
Extraction speed 4.9 X
Track quality 100.0 %
Test CRC 09FD8A1C
Copy CRC 09FD8A1C
Track not present in AccurateRip database
Copy OK
None of the tracks are present in the AccurateRip database
No errors occurred
End of status report
---- CUETools DB Plugin V2.1.4
[CTDB TOCID: 0pXqlWSdAdLbh72IwzpMG_dW6UI-] found
Submit result: 0pXqlWSdAdLbh72IwzpMG_dW6UI- has been confirmed
Track | CTDB Status
1 | (1/1) Accurately ripped
2 | (1/1) Accurately ripped
3 | (1/1) Accurately ripped
4 | (1/1) Accurately ripped
5 | (1/1) Accurately ripped
6 | (1/1) Accurately ripped
7 | (1/1) Accurately ripped
8 | (1/1) Accurately ripped
9 | (1/1) Accurately ripped
==== Log checksum 6079DE2A4C3A2749A0E800C01AB949EA639C2FF88A9427FF6B9E01D3A7E89429 ====
 
Содержание индексной карты (.CUE)
REM GENRE Jazz
REM DATE 2010
REM DISCID 790F2B09
REM COMMENT "ExactAudioCopy v1.0b3"
CATALOG 3760002130408
PERFORMER "Jean-Marie Machado & Danzas"
TITLE "Fiesta nocturna"
FILE "01 - Tangrock.wav" WAVE
TRACK 01 AUDIO
TITLE "Tangrock"
PERFORMER "Jean-Marie Machado & Danzas"
ISRC FR66V1006022
FLAGS DCP
INDEX 01 00:00:00
FILE "02 - Cantamarruecos.wav" WAVE
TRACK 02 AUDIO
TITLE "Cantamarruecos"
PERFORMER "Jean-Marie Machado & Danzas"
ISRC FR66V1006023
FLAGS DCP
INDEX 01 00:00:00
FILE "03 - Sarabande.wav" WAVE
TRACK 03 AUDIO
TITLE "Sarabande"
PERFORMER "Jean-Marie Machado & Danzas"
ISRC FR66V1006024
FLAGS DCP
INDEX 01 00:00:00
FILE "04 - Reel'n Roll.wav" WAVE
TRACK 04 AUDIO
TITLE "Reel'n Roll"
PERFORMER "Jean-Marie Machado & Danzas"
ISRC FR66V1006025
FLAGS DCP
INDEX 01 00:00:00
FILE "05 - Paso oscuro.wav" WAVE
TRACK 05 AUDIO
TITLE "Paso oscuro"
PERFORMER "Jean-Marie Machado & Danzas"
ISRC FR66V1006026
FLAGS DCP
INDEX 01 00:00:00
FILE "06 - Preludium.wav" WAVE
TRACK 06 AUDIO
TITLE "Preludium"
PERFORMER "Jean-Marie Machado & Danzas"
ISRC FR66V1006027
FLAGS DCP
INDEX 01 00:00:00
FILE "07 - Pizziche tarantate.wav" WAVE
TRACK 07 AUDIO
TITLE "Pizziche tarantate"
PERFORMER "Jean-Marie Machado & Danzas"
ISRC FR66V1006028
FLAGS DCP
INDEX 01 00:00:00
FILE "08 - Little Dog Waltz.wav" WAVE
TRACK 08 AUDIO
TITLE "Little Dog Waltz"
PERFORMER "Jean-Marie Machado & Danzas"
ISRC FR66V1006029
FLAGS DCP
INDEX 01 00:00:00
FILE "09 - Chinese Reggae.wav" WAVE
TRACK 09 AUDIO
TITLE "Chinese Reggae"
PERFORMER "Jean-Marie Machado & Danzas"
ISRC FR66V1006030
FLAGS DCP
INDEX 01 00:00:00
Any questions -> support@pro-jazz.com. По всем вопросам пишите -> support@pro-jazz.com
18:40
125
Нет комментариев. Ваш будет первым!