Вы используете незарегистрированную версию компонента "Вкладки"!

Поиск

(Contemporary Jazz, Avant-Garde Jazz) [CD] Harry Pepl, Herbert Joos, Jon Christensen - Cracked Mirrors - 1988 (ECM 1356), FLAC (tracks+.cue), lossless

(Contemporary Jazz, Avant-Garde Jazz) [CD] Harry Pepl, Herbert Joos, Jon Christensen - Cracked Mirrors - 1988 (ECM 1356), FLAC (tracks+.cue), lossless
Треклист:
Harry Pepl, Herbert Joos, Jon Christensen - Cracked Mirrors
Жанр: Contemporary Jazz, Avant-Garde Jazz
Носитель: CD
Страна-производитель диска (релиза): Германия
Год издания: 1988
Издатель (лейбл): ECM Records
Номер по каталогу: ECM 1356
Аудиокодек: FLAC (*.flac)
Тип рипа: tracks+.cue
Битрейт аудио: lossless
Продолжительность: 36:39
Источник (релизер): deodac (what)
Наличие сканов в содержимом раздачи: да
Треклист:
01. Wolkenbilder 1 (Joos) - 4:24
02. Reflections in a Cracked Mirror (Pepl) - 4:36
03. Schikaneder Delight (Pepl) - 2:37
04. Die alte Mar und das Mann (Pepl) - 6:50
05. More Far Out Than East (Pepl) - 3:13
06. Wolkenbilder 2 (Joos) - 6:12
07. Purple Light (Pepl) - 5:51
08. Tintenfisch Inki (Pepl) - 2:56
Состав:
Harry Pepl - guitar, Roland Midi Guitar System, piano
Herbert Joos - fluegelhorn
Jon Christensen - drums
Recorded at Rainbow Studio, Oslo in February 1987.
 
Лог создания рипа
X Lossless Decoder version 20100518 (120.3)
XLD extraction logfile from 2010-05-21 07:51:31 +0200
Harry Pepl / Cracked Mirrors
Used drive : MATSHITA DVD-R UJ-857D (revision KCV9)
Use cdparanoia mode : YES (CDParanoia III 10.2 engine)
Disable audio cache : OK for the drive with cache less than 2750KB
Make use of C2 pointers : NO
Read offset correction : 102
Max retry count : 100
TOC of the extracted CD
Track | Start | Length | Start sector | End sector
---------------------------------------------------------
1 | 00:00:33 | 04:23:40 | 33 | 19797
2 | 04:23:73 | 04:36:00 | 19798 | 40497
3 | 08:59:73 | 02:36:45 | 40498 | 52242
4 | 11:36:43 | 06:49:52 | 52243 | 82969
5 | 18:26:20 | 03:13:23 | 82970 | 97467
6 | 21:39:43 | 06:12:05 | 97468 | 125372
7 | 27:51:48 | 05:50:52 | 125373 | 151674
8 | 33:42:25 | 02:56:13 | 151675 | 164887
All Tracks
Album gain : 2.23 dB
Peak : 0.892120
Track 01
Filename : /XLD/01 - Wolkenbilder 1.flac
Pre-gap length : 00:02:33
Track gain : 2.42 dB
Peak : 0.616180
CRC32 hash (test run) : 54692745
CRC32 hash : 54692745
CRC32 hash (skip zero) : 3BB80ECE
AccurateRip signature : B2993C06
->Track not present in AccurateRip database.
Statistics
Read error : 0
Skipped (treated as error) : 0
Edge jitter error (maybe fixed) : 0
Atom jitter error (maybe fixed) : 0
Drift error (maybe fixed) : 0
Dropped bytes error (maybe fixed) : 0
Duplicated bytes error (maybe fixed) : 0
Inconsistency in error sectors : 0
Track 02
Filename : /XLD/02 - Reflections In A Cracked Mirror.flac
Pre-gap length : 00:03:43
Track gain : 1.95 dB
Peak : 0.750183
CRC32 hash (test run) : 28B005F4
CRC32 hash : 28B005F4
CRC32 hash (skip zero) : AE46375D
AccurateRip signature : 19A6D31E
->Track not present in AccurateRip database.
Statistics
Read error : 0
Skipped (treated as error) : 0
Edge jitter error (maybe fixed) : 0
Atom jitter error (maybe fixed) : 0
Drift error (maybe fixed) : 0
Dropped bytes error (maybe fixed) : 0
Duplicated bytes error (maybe fixed) : 0
Inconsistency in error sectors : 0
Track 03
Filename : /XLD/03 - Schikaneder Delight.flac
Pre-gap length : 00:02:38
Track gain : 1.23 dB
Peak : 0.600922
CRC32 hash (test run) : 07DD393D
CRC32 hash : 07DD393D
CRC32 hash (skip zero) : E2BE86A7
AccurateRip signature : 50DCA5D2
->Track not present in AccurateRip database.
Statistics
Read error : 0
Skipped (treated as error) : 0
Edge jitter error (maybe fixed) : 0
Atom jitter error (maybe fixed) : 0
Drift error (maybe fixed) : 0
Dropped bytes error (maybe fixed) : 0
Duplicated bytes error (maybe fixed) : 0
Inconsistency in error sectors : 0
Track 04
Filename : /XLD/04 - Die alte Maer und das Mann.flac
Pre-gap length : 00:02:45
Track gain : 3.26 dB
Peak : 0.892120
CRC32 hash (test run) : 016705F5
CRC32 hash : 016705F5
CRC32 hash (skip zero) : AD4157D6
AccurateRip signature : C281AFEE
->Track not present in AccurateRip database.
Statistics
Read error : 0
Skipped (treated as error) : 0
Edge jitter error (maybe fixed) : 0
Atom jitter error (maybe fixed) : 0
Drift error (maybe fixed) : 0
Dropped bytes error (maybe fixed) : 0
Duplicated bytes error (maybe fixed) : 0
Inconsistency in error sectors : 0
Track 05
Filename : /XLD/05 - More Far Out Than East.flac
Pre-gap length : 00:03:00
Track gain : 1.25 dB
Peak : 0.777771
CRC32 hash (test run) : 796AA225
CRC32 hash : 796AA225
CRC32 hash (skip zero) : A8F8CDC6
AccurateRip signature : F252D715
->Track not present in AccurateRip database.
Statistics
Read error : 0
Skipped (treated as error) : 0
Edge jitter error (maybe fixed) : 0
Atom jitter error (maybe fixed) : 0
Drift error (maybe fixed) : 0
Dropped bytes error (maybe fixed) : 0
Duplicated bytes error (maybe fixed) : 0
Inconsistency in error sectors : 0
Track 06
Filename : /XLD/06 - Wolkenbilder 2.flac
Pre-gap length : 00:01:10
Track gain : 2.12 dB
Peak : 0.782867
CRC32 hash (test run) : 1E5C95CC
CRC32 hash : 1E5C95CC
CRC32 hash (skip zero) : 21457112
AccurateRip signature : 7D58BA82
->Track not present in AccurateRip database.
Statistics
Read error : 0
Skipped (treated as error) : 0
Edge jitter error (maybe fixed) : 0
Atom jitter error (maybe fixed) : 0
Drift error (maybe fixed) : 0
Dropped bytes error (maybe fixed) : 0
Duplicated bytes error (maybe fixed) : 0
Inconsistency in error sectors : 0
Track 07
Filename : /XLD/07 - Purple Light.flac
Pre-gap length : 00:02:63
Track gain : 2.47 dB
Peak : 0.608185
CRC32 hash (test run) : 8FEFB898
CRC32 hash : 8FEFB898
CRC32 hash (skip zero) : 248F21A5
AccurateRip signature : 540A2CF9
->Track not present in AccurateRip database.
Statistics
Read error : 0
Skipped (treated as error) : 0
Edge jitter error (maybe fixed) : 0
Atom jitter error (maybe fixed) : 0
Drift error (maybe fixed) : 0
Dropped bytes error (maybe fixed) : 0
Duplicated bytes error (maybe fixed) : 0
Inconsistency in error sectors : 0
Track 08
Filename : /XLD/08 - Tintenfisch Inki.flac
Pre-gap length : 00:02:67
Track gain : 3.47 dB
Peak : 0.614075
CRC32 hash (test run) : 0AFDDB8D
CRC32 hash : 0AFDDB8D
CRC32 hash (skip zero) : 4717492C
AccurateRip signature : 0D881B4A
->Track not present in AccurateRip database.
Statistics
Read error : 0
Skipped (treated as error) : 0
Edge jitter error (maybe fixed) : 0
Atom jitter error (maybe fixed) : 0
Drift error (maybe fixed) : 0
Dropped bytes error (maybe fixed) : 0
Duplicated bytes error (maybe fixed) : 0
Inconsistency in error sectors : 0
No errors occurred
End of status report
 
Содержание индексной карты (.CUE)
TITLE "Cracked Mirrors"
PERFORMER "Harry Pepl, Herbert Joos, Jon Christensen"
CATALOG 0042283347229
REM GENRE "Jazz"
REM DATE "1988"
REM DISCID 58089608
FILE "01 - Wolkenbilder 1.wav" WAVE
TRACK 01 AUDIO
TITLE "Wolkenbilder 1"
INDEX 00 00:00:00
INDEX 01 00:00:33
TRACK 02 AUDIO
TITLE "Reflections in a Cracked Mirror"
INDEX 00 04:19:72
FILE "02 - Reflections in a Cracked Mirror.wav" WAVE
INDEX 01 00:00:00
TRACK 03 AUDIO
TITLE "Schikaneder Delight"
INDEX 00 04:33:37
FILE "03 - Schikaneder Delight.wav" WAVE
INDEX 01 00:00:00
TRACK 04 AUDIO
TITLE "Die alte Mar und das Mann"
INDEX 00 02:34:00
FILE "04 - Die alte Mar und das Mann.wav" WAVE
INDEX 01 00:00:00
TRACK 05 AUDIO
TITLE "More Far Out Than East"
INDEX 00 06:46:52
FILE "05 - More Far Out Than East.wav" WAVE
INDEX 01 00:00:00
TRACK 06 AUDIO
TITLE "Wolkenbilder 2"
INDEX 00 03:12:13
FILE "06 - Wolkenbilder 2.wav" WAVE
INDEX 01 00:00:00
TRACK 07 AUDIO
TITLE "Purple Light"
INDEX 00 06:09:17
FILE "07 - Purple Light.wav" WAVE
INDEX 01 00:00:00
TRACK 08 AUDIO
TITLE "Tintenfisch Inki"
INDEX 00 05:47:60
FILE "08 - Tintenfisch Inki.wav" WAVE
INDEX 01 00:00:00
 
Отчет CUETools
[CUETools log; Date: 30.10.2015 1:56:30; Version: 2.1.5]
Pregap length 00:00:33.
[CTDB TOCID: NHwzjnZza26CShHLQRur6Vp3s.Y-] found.
Track | CTDB Status
1 | (2/2) Accurately ripped
2 | (2/2) Accurately ripped
3 | (2/2) Accurately ripped
4 | (2/2) Accurately ripped
5 | (2/2) Accurately ripped
6 | (2/2) Accurately ripped
7 | (2/2) Accurately ripped
8 | (2/2) Accurately ripped
[AccurateRip ID: 000b36e2-004b7374-58089608] found.
Track [ CRC | V2 ] Status
01 [b2993c06|d0923450] (0+7/7) Accurately ripped
02 [19a6d31e|ba7b5260] (0+7/7) Accurately ripped
03 [50dca5d2|334933f0] (0+7/7) Accurately ripped
04 [c281afee|1e26acf6] (0+7/7) Accurately ripped
05 [f252d715|4795bd19] (0+7/7) Accurately ripped
06 [7d58ba82|d79bf84d] (0+7/7) Accurately ripped
07 [540a2cf9|bbc7f037] (0+7/7) Accurately ripped
08 [0d881b4a|94ed2153] (0+7/7) Accurately ripped
Track Peak [ CRC32 ] [W/O NULL]
-- 89,2 [21D18AB5] [0BBB13FD]
01 61,6 [54692745] [3BB80ECE]
02 75,0 [28B005F4] [AE46375D]
03 60,0 [07DD393D] [E2BE86A7]
04 89,2 [016705F5] [AD4157D6]
05 77,7 [796AA225] [A8F8CDC6]
06 78,2 [1E5C95CC] [21457112]
07 60,8 [8FEFB898] [248F21A5]
08 61,4 [0AFDDB8D] [4717492C]
 
Review by Tyran Grillo
After my faulty impressions of guitarist Harry Pepl’s effort with Werner Pirchner and Jack DeJohnette, I was gratified to stop on my listening journey at an unassuming little way station called Cracked Mirrors, which proves a far better showcase for Pepl’s innovative talents. For this collaboration, he welcomes Herbert Joos on fluegelhorn and drummer Jon Christensen. Joos lays down a breathy gorgeousness in his two-part “Wolkenbilder” (Cloud Picture). The first of these sets Pepl’s acoustic sequences into the recesses of an ambient storm, while the second makes beautiful use of midi and underscores Pepl’s off-kilter regularity. Joos shines like a snake of light into “Reflections In A Cracked Mirror.” In a rare death by drum machine, Christensen hauls us through a thicket of unsettling midi guitar, which is only strengthened by the punctiliousness of Pepl’s execution. “Schikaneder Delight” pays homage to, I can only surmise, Emanuel Schikaneder, Mozart’s famous librettist, with a showy ball dance that plods like something from a calliope before morphing into a Bill Frisell-esque fantasy. “Die alte Mär und das Mann” (The Ancient Tale And The Man) is straightforward trio work that features more greatness from Joos, who also excels throughout “More Far Out Than East,” in which Pepl is clearly having fun skittering through the rafters. “Purple Light” brings back the shaking and trembling, leaving us drained of our “Tintenfisch Inki” (Squid Ink). This final track features lovely piano from Pepl, who sends this eclectic marble skee-balling into orbit at last.
Pepl’s playing, as restless as it is welcoming, is difficult to pin down. This makes it all the more fascinating. He is the bloodstream of a vast organic landscape, where feelings of fracture share the roads with heavy travelers. One to explore.
По всем вопросам пишите личное сообщение пользователю M0p94ok.
16:31
181
Нет комментариев. Ваш будет первым!