Вы используете незарегистрированную версию компонента "Вкладки"!

Поиск

(Contemporary Jazz, Avant-Garde) [CD] Antonio Fusco Sextet - Suite for Motian - 2014, FLAC (tracks+.cue), lossless

(Contemporary Jazz, Avant-Garde) [CD] Antonio Fusco Sextet - Suite for Motian - 2014, FLAC (tracks+.cue), lossless
Треклист:
Antonio Fusco Sextet
Suite for Motian
Жанр: Contemporary Jazz, Avant-Garde
Страна-производитель диска: Italy
Год издания: 2014
Издатель (лейбл): Parco della Musica Records
Номер по каталогу: MPR 055
Аудиокодек: FLAC (*.flac)
Тип рипа: tracks+.cue
Битрейт аудио: lossless
Продолжительность: 47:30
Источник (релизер): спасибо merzbow1974
Наличие сканов: нет
Треклист:
1. My Foolish Heart
2. Preludio in frammenti
3. Detour Ahead / Cerchi in musica
4. Fear & Floating
5. Waltz for Debby
6. Termopili 5
7. Volo improvviso
8. Fabuana
9. My Romance
10. Water Ghostly Clarinet
 
Лог создания рипа
Exact Audio Copy V1.0 beta 3 from 29. August 2011
EAC extraction logfile from 27. November 2014, 0:53
Antonio Fusco Sextet / Suite For Motian
Used drive : Optiarc DVD RW AD-7240S Adapter: 4 ID: 0
Read mode : Secure
Utilize accurate stream : Yes
Defeat audio cache : Yes
Make use of C2 pointers : No
Read offset correction : 48
Overread into Lead-In and Lead-Out : No
Fill up missing offset samples with silence : Yes
Delete leading and trailing silent blocks : No
Null samples used in CRC calculations : Yes
Used interface : Native Win32 interface for Win NT & 2000
Gap handling : Appended to previous track
Used output format : User Defined Encoder
Selected bitrate : 128 kBit/s
Quality : High
Add ID3 tag : Yes
Command line compressor : C:\Programmi\Exact Audio Copy\Flac\flac.exe
Additional command line options : -8 -V -T "ARTIST=%artist%" -T "TITLE=%title%" -T "ALBUM=%albumtitle%" -T "DATE=%year%" -T "TRACKNUMBER=%tracknr%" -T "GENRE=%genre%" -T "PERFORMER=%albuminterpret%" -T "COMPOSER=%composer%" %haslyrics%--tag-from-file=LYRICS="%lyricsfile%"%haslyrics% -T "ALBUMARTIST=%albumartist%" -T "ALBUM ARTIST=%albumartist%" -T "DISCNUMBER=%cdnumber%" -T "TOTALDISCS=%totalcds%" -T "TOTALTRACKS=%numtracks%" -T "COMMENT=EAC V1.0 beta 2, Secure Mode, Test & Copy, AccurateRip, FLAC -8" %source% -o %dest%
TOC of the extracted CD
Track | Start | Length | Start sector | End sector
---------------------------------------------------------
1 | 0:00.00 | 6:55.33 | 0 | 31157
2 | 6:55.33 | 2:22.07 | 31158 | 41814
3 | 9:17.40 | 8:39.00 | 41815 | 80739
4 | 17:56.40 | 2:10.74 | 80740 | 90563
5 | 20:07.39 | 7:23.01 | 90564 | 123789
6 | 27:30.40 | 6:23.03 | 123790 | 152517
7 | 33:53.43 | 1:37.28 | 152518 | 159820
8 | 35:30.71 | 4:59.58 | 159821 | 182303
9 | 40:30.54 | 4:45.71 | 182304 | 203749
10 | 45:16.50 | 2:13.66 | 203750 | 213790
Track 1
Filename D:\________WHATCD\Nuova cartella\01 - Traccia01.wav
Pre-gap length 0:00:02.00
Peak level 99.9 %
Extraction speed 2.6 X
Track quality 100.0 %
Test CRC 03A25843
Copy CRC 03A25843
Track not present in AccurateRip database
Copy OK
Track 2
Filename D:\________WHATCD\Nuova cartella\02 - Traccia02.wav
Peak level 99.7 %
Extraction speed 2.1 X
Track quality 99.9 %
Test CRC 529694DB
Copy CRC 529694DB
Track not present in AccurateRip database
Copy OK
Track 3
Filename D:\________WHATCD\Nuova cartella\03 - Traccia03.wav
Peak level 99.8 %
Extraction speed 3.3 X
Track quality 100.0 %
Test CRC 04C4AE3F
Copy CRC 04C4AE3F
Track not present in AccurateRip database
Copy OK
Track 4
Filename D:\________WHATCD\Nuova cartella\04 - Traccia04.wav
Peak level 77.4 %
Extraction speed 3.0 X
Track quality 100.0 %
Test CRC 898C8080
Copy CRC 898C8080
Track not present in AccurateRip database
Copy OK
Track 5
Filename D:\________WHATCD\Nuova cartella\05 - Traccia05.wav
Peak level 99.9 %
Extraction speed 3.8 X
Track quality 100.0 %
Test CRC 2F6DC70C
Copy CRC 2F6DC70C
Track not present in AccurateRip database
Copy OK
Track 6
Filename D:\________WHATCD\Nuova cartella\06 - Traccia06.wav
Peak level 99.8 %
Extraction speed 4.0 X
Track quality 100.0 %
Test CRC CF99A2EC
Copy CRC CF99A2EC
Track not present in AccurateRip database
Copy OK
Track 7
Filename D:\________WHATCD\Nuova cartella\07 - Traccia07.wav
Peak level 48.6 %
Extraction speed 3.3 X
Track quality 100.0 %
Test CRC 6D13DF4E
Copy CRC 6D13DF4E
Track not present in AccurateRip database
Copy OK
Track 8
Filename D:\________WHATCD\Nuova cartella\08 - Traccia08.wav
Peak level 100.0 %
Extraction speed 3.8 X
Track quality 99.9 %
Test CRC 029DC309
Copy CRC 029DC309
Track not present in AccurateRip database
Copy OK
Track 9
Filename D:\________WHATCD\Nuova cartella\09 - Traccia09.wav
Peak level 99.8 %
Extraction speed 4.3 X
Track quality 100.0 %
Test CRC 48B2DF6C
Copy CRC 48B2DF6C
Track not present in AccurateRip database
Copy OK
Track 10
Filename D:\________WHATCD\Nuova cartella\10 - Traccia10.wav
Pre-gap length 0:00:00.49
Peak level 99.8 %
Extraction speed 4.0 X
Track quality 100.0 %
Test CRC 729E8A49
Copy CRC 729E8A49
Track not present in AccurateRip database
Copy OK
None of the tracks are present in the AccurateRip database
No errors occurred
End of status report
---- CUETools DB Plugin V2.1.3
[CTDB TOCID: XxcGeh2Ozsj.5UYXEpJRnrjCmEI-] disk not present in database, Submit result: XxcGeh2Ozsj.5UYXEpJRnrjCmEI- has been uploaded
==== Log checksum 573EE1FD8C1DE480E5B353B2170080C5985BD003A24F6DC4E125372A0DC8D3DA ====
 
Содержание индексной карты (.CUE)
REM DISCID 7A0B220A
REM COMMENT "ExactAudioCopy v1.0b3"
PERFORMER "Antonio Fusco Sextet"
TITLE "Suite For Motian"
FILE "01 - My Foolish Heart.wav" WAVE
TRACK 01 AUDIO
TITLE "My Foolish Heart"
PERFORMER "Antonio Fusco Sextet"
ISRC ITPDM1100670
INDEX 01 00:00:00
FILE "02 - Preludio in Frammenti.wav" WAVE
TRACK 02 AUDIO
TITLE "Preludio in Frammenti"
PERFORMER "Antonio Fusco Sextet"
ISRC ITPDM1100671
INDEX 01 00:00:00
FILE "03 - Detour Ahead Cerchi in Musica.wav" WAVE
TRACK 03 AUDIO
TITLE "Detour Ahead Cerchi in Musica"
PERFORMER "Antonio Fusco Sextet"
ISRC ITPDM1100672
INDEX 01 00:00:00
FILE "04 - Fear & Floating.wav" WAVE
TRACK 04 AUDIO
TITLE "Fear & Floating"
PERFORMER "Antonio Fusco Sextet"
ISRC ITPDM1100673
INDEX 01 00:00:00
FILE "05 - Waltz for Debby.wav" WAVE
TRACK 05 AUDIO
TITLE "Waltz for Debby"
PERFORMER "Antonio Fusco Sextet"
ISRC ITPDM1100674
INDEX 01 00:00:00
FILE "06 - Termopili 5.wav" WAVE
TRACK 06 AUDIO
TITLE "Termopili 5"
PERFORMER "Antonio Fusco Sextet"
ISRC ITPDM1200675
INDEX 01 00:00:00
FILE "07 - Volo Improvviso.wav" WAVE
TRACK 07 AUDIO
TITLE "Volo Improvviso"
PERFORMER "Antonio Fusco Sextet"
ISRC ITPDM1200676
INDEX 01 00:00:00
FILE "08 - Fabuana.wav" WAVE
TRACK 08 AUDIO
TITLE "Fabuana"
PERFORMER "Antonio Fusco Sextet"
ISRC ITPDM1200677
INDEX 01 00:00:00
FILE "09 - My Romance.wav" WAVE
TRACK 09 AUDIO
TITLE "My Romance"
PERFORMER "Antonio Fusco Sextet"
ISRC ITPDM1200678
INDEX 01 00:00:00
TRACK 10 AUDIO
TITLE "Water Ghostly Clarinet"
PERFORMER "Antonio Fusco Sextet"
ISRC ITPDM1200679
INDEX 00 04:45:34
FILE "10 - Water Ghostly Clarinet.wav" WAVE
INDEX 01 00:00:00
 
Состав

Antonio Fusco - drums
Francesco Chiapperini - alto sax, bass clarinet, eletronics
Marco Taraddei - tenor sax
Rino De Patre - acoustic guitar
Valerio Scrignoli - electric guitar
Michele Heels - electric bass
По всем вопросам пишите личное сообщение пользователю M0p94ok.
07:38
241
Нет комментариев. Ваш будет первым!