Поиск

(Contemporary Jazz) Anders Kjellberg (Louis Sclavis, Lars Danielsson, Tore Brunborg, Stale Storlokken, Marco Ambrosini) - Point - 1998, FLAC (image+.cue), lossless

(Contemporary Jazz) Anders Kjellberg (Louis Sclavis, Lars Danielsson, Tore Brunborg, Stale Storlokken, Marco Ambrosini) - Point - 1998, FLAC (image+.cue), lossless
Треклист:
Anders Kjellberg / Point
Жанр: Contemporary Jazz
Страна-производитель диска: Sweden
Год издания: 1998
Издатель (лейбл): Dragon Records
Номер по каталогу: DRCD 321
Аудиокодек: FLAC (*.flac)
Тип рипа: image+.cue
Битрейт аудио: lossless
Продолжительность: 75:54
Источник (релизер): cd
Наличие сканов в содержимом раздачи: нет
Треклист:
1 Point 7:35
2 Trekant 3:26
3 60 9:29
4 Bris 4:45
5 Don 6:50
6 Dagg 1:46
7 Circumstances 5:59
8 Natt 5:06
9 Zoom 5:02
10 Till En Vag 3:19
11 Point Trio 3:26
12 Stale's Secret 3:40
13 Sunday 4:52
14 Glory 7:42
15 Jul, Jul, Stralande Jul 2:53
 
Лог создания рипа
Exact Audio Copy V1.0 beta 2 from 29. April 2011
EAC extraction logfile from 6. April 2012, 14:28
Anders Kjellberg / Point
Used drive  : Optiarc DVD RW AD-7170A   Adapter: 0  ID: 0
Read mode               : Secure
Utilize accurate stream : Yes
Defeat audio cache      : Yes
Make use of C2 pointers : No
Read offset correction                      : 48
Overread into Lead-In and Lead-Out          : No
Fill up missing offset samples with silence : Yes
Delete leading and trailing silent blocks   : No
Null samples used in CRC calculations       : Yes
Used interface                              : Native Win32 interface for Win NT & 2000
Used output format              : User Defined Encoder
Selected bitrate                : 320 kBit/s
Quality                         : High
Add ID3 tag                     : No
Command line compressor         : C:\Program Files\Exact Audio Copy\Flac\flac.exe
Additional command line options : -V -8 -T "Date=%year%" -T "Genre=%genre%" %source%
TOC of the extracted CD
     Track |   Start  |  Length  | Start sector | End sector
    ---------------------------------------------------------
        1  |  0:00.00 |  7:32.45 |         0    |    33944
        2  |  7:32.45 |  3:26.02 |     33945    |    49396
        3  | 10:58.47 |  9:37.08 |     49397    |    92679
        4  | 20:35.55 |  4:38.00 |     92680    |   113529
        5  | 25:13.55 |  6:50.65 |    113530    |   144344
        6  | 32:04.45 |  1:46.35 |    144345    |   152329
        7  | 33:51.05 |  6:05.32 |    152330    |   179736
        8  | 39:56.37 |  5:00.33 |    179737    |   202269
        9  | 44:56.70 |  5:02.30 |    202270    |   224949
       10  | 49:59.25 |  3:19.35 |    224950    |   239909
       11  | 53:18.60 |  3:26.65 |    239910    |   255424
       12  | 56:45.50 |  3:40.12 |    255425    |   271936
       13  | 60:25.62 |  5:00.15 |    271937    |   294451
       14  | 65:26.02 |  7:42.60 |    294452    |   329161
       15  | 73:08.62 |  2:45.48 |    329162    |   341584
Range status and errors
Selected range
     Filename C:\EAC\Downloads\Anders Kjellberg - Point.wav
     Peak level 100.0 %
     Extraction speed 2.3 X
     Range quality 99.9 %
     Test CRC 1E6AE33A
     Copy CRC 1E6AE33A
     Copy OK
No errors occurred
AccurateRip summary
Track  1  not present in database
Track  2  not present in database
Track  3  not present in database
Track  4  not present in database
Track  5  not present in database
Track  6  not present in database
Track  7  not present in database
Track  8  not present in database
Track  9  not present in database
Track 10  not present in database
Track 11  not present in database
Track 12  not present in database
Track 13  not present in database
Track 14  not present in database
Track 15  not present in database
None of the tracks are present in the AccurateRip database
End of status report
==== Log checksum 0B4FDC9CCF62B4E27AF65E48E6DF46DF86DBF5278BA2FA3CA8BC078C2C307701 ====
 
 
Содержание индексной карты (.CUE)
REM GENRE Jazz
REM DATE 1998
REM DISCID CC11CA0F
REM COMMENT "ExactAudioCopy v1.0b2"
PERFORMER "Anders Kjellberg"
TITLE "Point"
FILE "Anders Kjellberg - Point.flac" WAVE
  TRACK 01 AUDIO
    TITLE "Point"
    PERFORMER "Anders Kjellberg"
    ISRC SEPUC9818010
    INDEX 01 00:00:00
  TRACK 02 AUDIO
    TITLE "Trekant"
    PERFORMER "Anders Kjellberg"
    ISRC SEPUC9818020
    INDEX 01 07:32:45
  TRACK 03 AUDIO
    TITLE "60"
    PERFORMER "Anders Kjellberg"
    ISRC SEPUC9818030
    INDEX 01 10:58:47
  TRACK 04 AUDIO
    TITLE "Bris"
    PERFORMER "Anders Kjellberg"
    ISRC SEPUC9818040
    INDEX 00 20:28:48
    INDEX 01 20:35:55
  TRACK 05 AUDIO
    TITLE "Don"
    PERFORMER "Anders Kjellberg"
    ISRC SEPUC9818050
    INDEX 01 25:13:55
  TRACK 06 AUDIO
    TITLE "Dagg"
    PERFORMER "Anders Kjellberg"
    ISRC SEPUC9818060
    INDEX 01 32:04:45
  TRACK 07 AUDIO
    TITLE "Circumstances"
    PERFORMER "Anders Kjellberg"
    ISRC SEPUC9818070
    INDEX 01 33:51:05
  TRACK 08 AUDIO
    TITLE "Natt"
    PERFORMER "Anders Kjellberg"
    ISRC SEPUC9818080
    INDEX 00 39:50:53
    INDEX 01 39:56:37
  TRACK 09 AUDIO
    TITLE "Zoom"
    PERFORMER "Anders Kjellberg"
    ISRC SEPUC9818090
    INDEX 01 44:56:70
  TRACK 10 AUDIO
    TITLE "Till en Vag"
    PERFORMER "Anders Kjellberg"
    ISRC SEPUC9818100
    INDEX 01 49:59:25
  TRACK 11 AUDIO
    TITLE "Point Trio"
    PERFORMER "Anders Kjellberg"
    ISRC SEPUC9818110
    INDEX 01 53:18:60
  TRACK 12 AUDIO
    TITLE "Stale's Secret"
    PERFORMER "Anders Kjellberg"
    ISRC SEPUC9818120
    INDEX 01 56:45:50
  TRACK 13 AUDIO
    TITLE "Sunday"
    PERFORMER "Anders Kjellberg"
    ISRC SEPUC9818130
    INDEX 01 60:25:62
  TRACK 14 AUDIO
    TITLE "Glory"
    PERFORMER "Anders Kjellberg"
    ISRC SEPUC9818140
    INDEX 00 65:18:25
    INDEX 01 65:26:02
  TRACK 15 AUDIO
    TITLE "Jul, Jul, Stralande Jul"
    PERFORMER "Anders Kjellberg"
    ISRC SEPUC9818150
    INDEX 00 73:01:10
    INDEX 01 73:08:62
Доп. информация: Recorded at the Swedish Radio, Gothenburg, January 7-9, 1996
 
 
Состав
Clarinet [Clarinets], Soprano Saxophone – Louis Sclavis
Double Bass – Lars Danielsson
Drums, Percussion – Anders Kjellberg
Hurdy Gurdy [Nyckelharpa] – Marco Ambrosini
Keyboards – Stale Storlokken
Soprano Saxophone, Tenor Saxophone – Tore Brunborg
Any questions - support@pro-jazz.com
To become a power user - read FAQ.
01:03
456
Нет комментариев. Ваш будет первым!